&title=Twinkle Starlight
&artist=佐咲纱花
&first=0
&des=momo
&lv_5=13+
&inote_5=(129)
{16}
,,,,,,,,
,,,,,,,,
{16}
3h[8:2]/4h[8:2],,,,,,3/4>1[8:2],,
,,,,,,,,
{16}
2h[8:2]/8h[8:2],,,,,,8/2<7[8:2],,
,,,,,,,,
{16}
8h[8:2]/5h[8:2],,,,,,5/8<5[8:2],,
,,,,,,,,
{16}
6/4h[8:2],,,,5<8[8:1],,,,
1>4[8:1],,,,5-1[8:6],,,,
{16}
5h[8:6],,,,,,,,
,,,,,,,,
{16}
1-5[8:4]/5h[8:2],,,,,,,,
,,,,,,,,
{16}
1b<6[8:1]/5b>2[8:1],,,,5pp2[8:3],,,,
,,,,,,,,
{16}
3,4,,6,5,,4,5,
3-8[8:1],6-1[16:1],2,7,,,,,
{16}
2b/7b,,,1h[16:3],,,7V16[16:4],,
,,,,,,2,2,
{16}
4,,8-2[8:1],,2-5[8:1],,3h[8:3],,
,,,,,,4/6h[8:1],,
{16}
3,4,3<6[8:1],4,2,,1-5[8:1],,
,,7,,8,,2-6[8:1],,
{16}
,,5,,5w1[8:1],,,,
5,,,,7/3,,2,,
{16}
3/5,,,1/4,,,6/8V26[16:4],,
,,,,,,7,7,
{16}
4,,5-3[8:1],,3-7[8:1],,1h[8:3],,
,,,,,,6/2h[8:1],,
{16}
8,,6,5,,7,1,,
5,4,,6,2,,7-3[8:1]/3,,
{16}
,,2,,1,,8<5[8:1],,
,,
{24}
1,2,3,
{16}
4b,,,,
{16}
5,,,,5,,,,
5,,3,,5,,1,,
{16}
5,,3,,5,,4,,
5,,3,,2,,,,
{16}
3,,,,3/4,,,4,
3,,5,,3,,6,,
{16}
3,,5,,3,,6,,
3,,4,,2,,,,
{16}
1>5[16:3],,,,1,,,,
1<5[16:3],,,,1,,,,
{16}
1s5[8:2],,,,1,,,,
1,,,,3p7[8:1]/7p3[8:1],,,,
{16}
3/7<2[24:5],,,,,,8b<1[8:4],,
,,,,,,,,
{16}
,,,,,,7,,
7,,5,,5-1[8:1],,,,
{16}
7<4[8:1],,,,3/7,,,2,
2>5[8:1],,5,,2/6,,8-4[8:1],,
{16}
,,5,,3,,1-5[8:1],,
,,4,,6<4[24:5],,8,,
{16}
1bw5[8:1],,,,,,,,
37,,6h[8:1],,3h[8:1],,4,,
{16}
,,3h[8:1],,7h[8:1],,8,,
,,5h[8:1],,4,,,,
{16}
6>3[16:2],,4,,2,,1,,
,,1-6[8:1]/5-2[8:1],,,,1/5,,
{16}
,,,,8/1,,,,
2,1,2,1,3-6[8:1],,,,
{16}
6p4[8:4],,,,,,8h[8:4],,
,,,,,,,,
{16}
,,4/8,,3,,7,,
8<5[8:1]/1>4[8:1],,2/7,,1/8,,,,
{16}
2-6[8:1],1,2,1,2b,,,,
,,1bqq6[16:6]*pp4[16:6],,,,1b,,
{16}
,,,,,,,,
5h[16:3],,,4h[16:3],,,3,,
{16}
2>5[8:1],,,,6/2,,,7,
7<4[8:1],,4,,7/3,,1-5[8:1],,
{16}
,,4,,6,,8-4[8:1],,
,,5,,3V52[16:3],,,,
{16}
3/5,,,,8,,4/7-4[8:1],,
,,7/1-5[8:1]*-3[8:1],,,,1,,
{16}
,,,,6<1[8:2],,,,1>4[8:2],,,,
4p6[8:2],,,,
{16}
5,,,,3,,,,
3/4,,3>8[8:1],,8<5[8:1],,5bp3[16:4],,
{16}
,,,,,,,,
45,,
{16}
7,5,6,,
{24}
2,3,4,
{16}
5/6,,7,5,6<1[8:1],,1V74[16:3],,
3b,,,,,,3,3,
{16}
4,,5,5,4pp6[8:1]*qq2[8:1],,35,,
,,,,,,7,5,
{16}
6,,3,5,4-8[8:1],,8V25[16:3],,
6b,,,,,,6,6,
{16}
4,,2,2,4p8[8:1]*q8[8:1],,26,,
,,,,,,2,4,
{16}
3,,6,4,5-8[8:1],,8V25[16:3],,
2b,,,,,,1,1,
{16}
4,,7,7,4>1[8:1]*<7[8:1],,17,,
,,,,,,6,5,
{16}
7h[8:1],,8,,2h[8:1],,3,,
45,,6h[8:1],,8,,5h[8:1],,
{16}
7,,4h[8:1],,2,,3h[8:1],,
1,,7,7,5,,4,5,
{16}
3,4,2,2,6,5,7,7,
2,4,3,3,
{32}
1s5[8:1],8,7,6,
{16}
5bpp7[16:3]*qq3[16:3],,
{16}
,,,,,,,,
1,,24,,5w1[8:1],3,7,,
{16}
5b,,,,3/7h[16:3],,,5,
6,,8-3[8:1],,1/7,,2/8,,
{16}
4,,5,,8/4,,5/6,,
7-4[8:1],,8,,71,,2,,
{16}
3/5,,,,6/2h[16:3],,,4,
3,,1-6[8:1],,8/2,,7/1,,
{16}
4,,3,,2/6,,8/1-5[8:1],,
2-6[8:1],,1,,2,,,,
{16}
1b>4[8:1]*<6[8:1],,3/7,,1,,,,
5/7,,2q6[8:1],,,,8/2,,
{16}
7<4[8:1],,,,3/7,,1>6[24:5],,,,6p1[24:3],,7,,8,,
{16}
8<2[24:6],,,,2V86[24:4],,8,,
,,4>6[24:6],,3,,1qq4[16:6],,
{16}
,,,,,,,,
5,,6,,7,,8,,
{16}
2/4-1[8:1],,,,5/4,,,5,
1,,3/4h[8:1],,1,,4/5h[8:1],,
{16}
1,,5<1[24:4]*>1[24:4]/6h[8:1],,1,,5b,,
,,,,3q1[8:1]/7p1[8:1],,,,
{16}
7q5[8:1]/3p5[8:1],,,,,,,,
8b<2[24:6]/2b,,5b/4b,,8b/2b,,1-5[8:1],,
{16}
,,1b>4[8:1]*<6[8:1],,,,1bw5[8:1],,
,,1b,,,,,,
{16}
46,,8,,3,4,1,,
7-4[8:1],3,8-3[8:1],2,7,,8,,
{16}
,,5b-8[8:1]/1b-4[8:1],,7b/3b,,,,
,,,,3-8[8:1]/7p4[16:32],26,15,,
{16}
3b,,,,,,,,
,,,,,,3-8[16:14],,
{16}
,,,,,,,,
,,,,,,,,
{16}
,,,,,,,,
,,,,,,,,
E
