&title=TSUBAKI
&artist=影虎
&first=0
&des=Shangle!
&lv_5=14
&inote_5=(180)
{1}
,,
{8}
6x/4x,,4,6h[8:5],,,,,{8}C,,,,{6},E7,C,
{8}E3h[8:8],,,,,4,4qq7[8:8],,,,,,,,,,
{8}3x,,6,4h[8:5],,,,,{3}B4,C,B8,
{8}8,,7,1s5[8:7],,,,,6xb,,,,1xb,,,,
{8}
6x/2x,,6,2-4[8:1],,,5,,{6}C,,3,,E8,E7,
{8}E6/2x,,7,1,,,5/3p2[8:8],,6x,,,,5xh[4:1],,,,
{8}B6hf[4:8],,,,D5,,,,D3,,,,D1,,,,
{8}2xb,2,8,7,2,1,8,7-4[8:1]/2x,,7x/1-5[8:1],,1x/6-2[8:1],,6x/4,,3,
{16}
8,,3,4,2,,6,5,7,,8,,1,,2,,
3,,6,5,7,,3,4,2,,8,,7,,6,,
6,,3,4,2,,6,5,7,,8,,1,,2,,
3,,6,5,7,,1,8,2x,3x,4x,5x,8x,7x,6x,5x,
2x/4x,,7,8,6,,2,1,3,,4,,5,,6,,
73,,2,1,3,,7,8,6,,4,,3,,2,,
26,,7,8,6,,2,1,3,,4,,5,,6,,
{16}
17,,,35,,,26,,Ch[4:2],,,,,,,,
{8}
1<5-3[8:13],,,,,,,,{16}1,,,1,,,1,,E1,,,,,,,,
{8}8>4-6[8:13],,,,,,,,{16}7,,,7,,,7,,E8,,,,,,,,
{8}
4<8-2[8:13],,,,,,,,{16}4,,,4,,,4,,E5,,,,,,,,
{8}
5>1[16:7],,,,7h[4:1],,,,1,6,4,4,8w4[8:1],,,,
{8}
6,,2,5/2-4[8:1],,7,7h[8:2],,5-2[8:1],,8,,1,28,46,,
B4/E5,E8,E7,E6,B8/E1,E4,E3,E2,
{16}E6/E5/A5,,A2,A3,A4,,A8,A7,A6,,1xb,,1xb,,,,
{16}2h[4:1],,,,5,,6,4,8,,,,25,,6,4,8h[4:1],,,,
{8}
2h[4:1],,4h[4:1],,5h[4:1],,
6>3[16:3],,1,1-5[64:10],,7,7,,
{16}
2,,6,5,6,,2,4,2,,8,,8,,,,
{16}
4/7b,,6,5,6,,4/7b,,6,5,6,,4q5[8:6]/7b,,6x,,{4}6x,,Cf,,
{16}
5/2b,,3,4,3,,5/2b,,3,4,3,,5>7[8:6]/2b,,3x,,{4}3xh[8:2],,3xh[8:2],,{16}
1/6b,,7,8,7,,1/6b,,7,8,7,,1/6b,,7,,{4}1q4[8:4],,6,6,
{16}
8/3b,,2,1,2,,8/3b,,2,1,2,,8/3bh[4:1],,,,5h[8:6],,,,E7/A6,,,,A2/E2,,,,8xbh[384:1],,,,{16}
17,,7,5,7,,7,3,7,,7,,72,,8,,
27,,2,4,2,,2,6,2,,2,,28,,3,,
47,,7,5,7,,7,1,7,,7,,78,,6,,
35,,3,4,3,,3,7,3,,3,,31,,4,,
{12}
8x/5x,7,6,2x/5,4,3,7x/2,1,8,4x/7,6,5,
4x/1x,2,3,7x/4,5,6,2x/7,8,1,5x/2,3,4,
{1}5xb/1bw5[8:4],
{16}
4,3,2,1,7,6,5,4,2,3,4,5,1-5[8:1],,8,,
{8}
7/1,,4-8[8:1]/6,3,2/4,1h[8:2],{16}7,6,5,,
{8}
2-5-1[4:1],5,2/7-4[8:1],8,7,8b,8b,,
{16}
2h[4:1]/6,,6,,4,,5,3,7h[8:2],,3,,5,,4,6,
{8}
2-6[8:1],5,2V48[4:1],7,2,{16}D7,E6,E5,,
{8},
{8}
1/7-5[8:1],,7-1[8:1]/2-4[8:1],,2-6[8:1]/7,,2/8-4[8:1],,
8/3-1[8:1],,3-5[8:1]/6-8[8:1],,6-2[8:1]/3,,6/4-8[8:1],,
{8}
4<7[8:1],,1-5[8:1],,3,3,2,1,1<6[8:1]/7,,1/4-8[8:1],,2-6[8:1]*-5[8:1]/4,,2b,,
{16}7h[4:1]/4,,,,8,,2-5[8:1],1,,1,2,,7,,6,,
{16}2h[4:1]/5,,,,4,,6-1[8:1],5,,5,6,,2,,3,,
{8}
8<5[8:1]/4,8,1,2,3>8[8:1],3,4,5,6h[4:1],,1,{16}78,7,,12,2,,3x/6x,,,,
{8}
52,52,{16}3-6[8:1],4,2,,6,,7,,8,,3,,{8}4>8[4:1]/6,,8<4[4:1],,4>8[4:1],,8,,
{16}
7,,7,6,5,,3h[8:1],,4h[8:1],,2,,17,,1,2,3,,6h[8:1],,
5h[8:1],,7,,48,,3,,25,,6,,
{8}
47,47,{16}6-3[8:1],5,7,,3,,2,,1,,6,,{8}5<1[4:1]/3,,1>5[4:1],,5<1[4:1],,1,,
5h[4:1],,3,,7,1,2h[4:1]/6,,4h[4:3],,C,,8h[8:1],,
{32}
5xb/1,2/6xb,3/7xb,4/8xb,
{8},2b/6b,
{16}3,4,2,6,8,7,1,,
{8}78,56,34,
{16}
2x/6x,5,,2x/6x,5,,2x/6x,5,,2x/6x,5,,3,4,3,,
2x,1,3,8,,4,5,3,7x,8,6,1,,5,3,6,
1x-6[8:1],,,,1x-4[8:1]/2,,,,1xw5[8:1]/8,,,,1b,,,,
{16}
3h[8:1],,5,6,7h[8:1],,4,3,2h[8:1],,6,7,8h[8:1],,3,4,5h[8:1],,2,3,4h[8:1],,1b,,{24}2,8,2,8,,,{8}1,2h[8:1],
{8}
7-4[8:1],6,1-6[8:1]/7,2,1-4[8:1],4,15,6,
2/7-3[8:1],,7-5[8:1]/8,1,2<7[8:1]/7,,
{16}7,6,5,4,
{16}
1xh[16:2],,,1xh[8:1]/4h[8:1],,,1x/7,,1,2,3,4,6,7,8,1,
4xh[16:2],,,4xh[8:1]/1h[8:1],,,4x/6,,2b,4,2,4,8b,7,8,7,
{8}
2x-6[8:1],2,4,4-1[8:1],,46,5<8[16:2],,
{16}
5/3h[8:1],,,,4h[8:1]/6h[8:1],,,,28,,1,1,1,,38,,
{8}
72,6,74,8,17,6,7/2-6[8:1],8,2-4[8:1]/7,5,2-6[8:1]/7,8,2-4[8:1]/7,5,27,8,
{16}
2b/7b,,,,18,,5,4x,7x,,3,,15,,,2x,8x,,47,,25,2,,8x/7,8x/7,,46,,2/1x,8x,7x,6x,
{16}
1b,4,3x,6,5,7,2b,4,3x,7,5,8,1b,4,3x,6,5,7,2b,4,3x,7,5,8,1b,4,3x,6,5,7,1b,,
{16}
2x,5,1x,6,2x,5,1x,6,3,7,4,7,5,7,6,7,
{4}
1w5b[8:1],,8w4[8:1],,
{48}1b>5qq7V14[8:26],28,37,46,A5f/D6/D5,,
{8},,,,,,,{1},{16}
,,,,,,,,,,,,,,,,,,,,,,,,,,,,,,,,
{16}
5x/B2,,,,,,6x/B2,,,,,,7x,,,,,,8xh[16:10]/1xh[16:10],,,,,,,,,,,,,,
B2,,,,,,Ch[16:26]/B2,,,,,,,,,,,,,,,,,,,,,,,,,,,
&inote_6=
&inote_7=
