&title=ローリンガール
&artist=wowaka; 初音ミク
&first=-0.48
&des=(q>4[2:3],3h[2:3],,,,,,, 4>5[2:3],4h[2:3],,,,,,, 5>6[2:3],5h[2:3],,,,,,, 6<4[1:1],6h[2:3],,,,,,{24}7x,8,1,2,3,4, {8}5b/6,,4/7qq8[32:13],,1,2,3,4h[4:1],,8,7,6/5,4<7[16:3],3,2,, 8,,1/7pp6[32:13],,5,4,3,2h[4:1],,6,1,6pp5[32:9],2,3,4,, 4b/3,,5/2pp1[32:13],,8,7,6,5h[4:1],,1,2,3/4,5>2[16:3],6,7,, 1,,8/2qq3[32:13],,4,5,6,7h[4:1],,3,8,3qq4[32:9],7,6,5,,
&inote_6=(195)
{4},,
,,3>4[2:3],3h[2:3],,,,,,,
4>5[2:3],4h[2:3],,,,,,,
5>6[2:3],5h[2:3],,,,,,,
6<4[1:1],6h[2:3],,,,,A5,{24}7x,8,1,2,3,4,
{8}5b/6,,4/7qq8[32:13],,1,2,3,4h[4:1],,8,7,6/5,4<7[16:3],3,2,,
8,,1/7pp6[32:13],,5,4,3,2h[4:1],,6,1,6pp5[32:9],2,3,4,,
4/3,,5/2pp1[32:13],,8,7,6,5h[4:1],,1,2,3/4,5>2[16:3],6,7,,
1,,8/2qq3[32:13],,4,5,6,7h[4:1],,3,8,3qq4[32:9],7,6,5,,
5b/6<1[32:5],,4,,3,2,{16}1,8,{8}1h[4:1],,7,6,5,34,{16}2,1,{8}2,,
8>3[8:1]/3,,78,,6,5<3[32:9],4,3,,4,4qq5[32:9],,8,7,6,,
4/3>8[32:5],,5,,6,7,{16}8,1,{8}8h[4:1],,2,3,4,65,{16}7,8,{8}7,,
1<6[8:1]/6,,21,,3,4>6[32:9],5,6,,5,5h[4:1],,4,4,{16}3,5,3,5,
{8}3<6[4:1],,,,2>8[8:3],,,,1pp8<2[4:3],,,,,,8,7,6<4[16:5],,4,,5,5>2<7<4[8:5],,6h[8:5],,,,,,,3,,
6>3[4:1],,,,7<1[8:3],,,,8qq1>7[32:23],,,,,,8qq1[8:3],1pp6[8:5],,,,,,,8>6[8:3],7h[8:5],,,,,8,,87,,
1/6>8<5[2:1],,,,,,4pp4[16:5],3qq8[2:1],,,,,4,,5,,6<1[4:1],,1>4[4:1],,4<7[4:1],,8,8pp3[2:1],,,,,7,,6,,
5<3<6[2:1],,,,,8,1qq1[16:5],2pp5[2:1],,,,,8,,7,,
6<4<7[2:1],,,,,1,2qq6[2:1],3pp3[8:3],,,,,,,{16}7,4,7,4,
{8}7b,,5pp5[16:5]/6,,4,3,2,1pp1[4:1],,5,6,7,8<5[32:5],1,2,,
34,,1/6pp5[16:5],,5,4,3,2pp1[4:1],,1,8,7,6>3[32:5],1,1,,
2,,4qq4[16:5]/3,,5,6,7,8qq8[4:1],,4,3,2,1>4[32:5],8,7,,
65,,8/3qq4[16:5],,4,5,6,7qq8[4:1],,8,1,2,3<6[32:5],8,8,,
{8}7>2[4:1],,,,6<4[8:3],,,,5pp4>6[4:3],,,,,,4,3,2>8[16:5],,8,,1,1<6>3>8[8:5],,2h[8:5],,,,,,,7,,
2<7[4:1],,,,3>5[8:3],,,,4qq5<3[32:23],,,,,,5<3b<6b[2:1],,,,,,,8,1<3[16:5],2h[8:5],,,,,1,,12,,
3<6[4:1],,6<1[4:1],,1>4[4:1],,5,6pp5[8:3],,6,4>1[16:3],,4,,
7,7h[4:1],,1,2pp1[8:3]/6,,1,8,7,6<1[32:5],,2,2h[4:1],,4<2[16:5],,3,,
4>6[16:5],,,,5>7[16:5],,,,6>8[16:5],,,,7<1[16:5],,,,8,,8,,8,,18,,{16}2,4,2,4,2,5,2,5,{24}2x,1,8,7,6,5,4,3,2,{8}1,
7b/8<5[8:1],,1/8>3[8:1],,6<4[16:5]/8,,5,5h[4:1],,,5/6<4[16:5],,16,,
8,8pp8[16:5],,4,5,6,7qq8[8:3],8,1,2,,3,3>5[4:1],,8h[4:1]/3,,,,
4qq5[16:5]/8,,5,6,7h[4:1],,6,6/7pp4[8:3],,3,3,,2h[4:1],,5,5/2>5[32:5],,6,6h[4:1],,7,58,41,3/2qq3[16:5],,4,5,6,7,7/4,,,
7/8b<5[8:1],,1/8>3[8:1],,6<4[16:5]/8,,5,5h[4:1],,,5/6<4[16:5],,16,,
8,8pp8[16:5],,4,5,6,7qq8[8:3],8,1,2,,3,3>8[4:1],,8<5[4:1],,5>2[32:7],,
1pp1[16:5],,8,,7qq8[16:5],,2,,3pp2[16:5],,1,,8qq8[16:5],,1,,
4>6[16:5],,,,5>7[16:5],,,,6>8[16:5],,,,7,,87,,
2b/1>4[8:1],,8/1<6[8:1],,3>5[16:5]/1,,4,4h[4:1],,,4/3>5[16:5],,83,,
1,1qq1[16:5],,5,4,3,2pp1[8:3],1,8,7,,6,6<4[4:1],,1h[4:1]/6,,,,
5pp4[16:5]/1,,4,3,2h[4:1],,3,3/2qq5[8:3],,6,6,,7h[4:1],,4,4/7<4[32:5],,3,3h[4:1],,2,41,58,6/7pp6[16:5],,5,4,3,2,2/5,,,
2/1b>4[8:1],,8/1<6[8:1],,3>5[16:5]/1,,4,4h[4:1],,,4/3>5[16:5],,83,,
1,1qq1[16:5],,5,4,3,2pp1[8:3],1,8,7,,6,6<1[4:1],,1>4[4:1],,4<7[32:7],,
8qq8[16:5],,1,,2pp1[16:5],,7,,6qq7[16:5],,8,,1pp1[16:5],,8,,
5,6,78,1,24,3,65,7,{16}1,8,1,8,2-6b[8:1],1,2,1,2xb,,8xb<1b[8:9],,
