&title=Trinity Departure
&artist=Soleily
&first=-1.18
&des=夢物語
&lv_5=13+
&inote_5=(152){1},{16}34,,3,3h[8:1],,5,5h[8:1],,4,,37,,28,,1,2,
{16}3h[1:1],,,,1,,2,2,,,1,,8,,7,,{4}6p4[2:1],1,2,3,3h[4:1],{16},,6,6,6h[16:3],,,5,,,4,,{2}3q6[2:1],{16},,,,,,7,4,
6,5,6,5,6,4,6,4,7,3,7,3,7,2,7,2,8,3,4,3,8,4,5,4,8,5,6,5,8<5[4:1],4,5,4,{24}A8,D8,A7,D7,A6,D6,A4,D4,A3,D3,A2,D2,{32}E1,E8,E7,E6,E5,E4,E3,E2,E1,E8,E7,E6,E5,E4,E3,E2,{4}Cf,,{16}4-8[8:1],,
,,,,,,
6>4[8:1],,,5,6,,3,,3-5[8:1],4,,4,3,,,,6-4[8:1],,,4,6,,3,,3<5[8:1],5,,5,3,,,,
7<5[8:1],,,5,7,,3,,3-6[8:1],4,,4,3,,,,7-4[8:1],,,5,7,,3,,3-6[8:1]*-8[8:1],,,,3,,,,
{16}1-7-4[16:6]/8,,,7x,,,4-1[16:4],,,,,,6x,,,,5h[16:3],,,4h[16:3],,,6h[16:3],,,3h[16:3],,,7,,2,,78,,78,,16,,61,,1,1,5,5,2,2,4,4,
{16}4h[8:1]/3h[8:1],,,1h[8:1]/7h[8:1],,,5h[8:1]/3h[8:1],,,8h[8:1]/2h[8:1],,,5b/6b,,,,
{16}7qq4[4:1]*qq4[4:1],,,1,,,{32}1$,B1,C,B5,{16}A5,,,,1,,2,,4<7[8:1],,3,4,{32}A5,D6,A6,D7,{16}8h[4:1],,,,7h,,,,1,2,3<6-3[2:1],,,,,,B1,B8,E8,,,,,,1,,
{16}1h[8:1]/2h[8:1],,,4h[8:1]/3h[8:1],,,5-1[8:1]/6-2[8:1],,,,,,,,,,3>6[2:1],,,,,,5hx[8:3],,,,,,,,,,6<3b[2:1],,,,,,4hx[8:3],,,,,,,,,,1h[8:5],,,,,,,,8h[8:1],,,,8,8,1,1,2h[8:1],,3,2,1,8,7,6,5,41,8,7,6,5,4,3,{2}2b<5[2:1]/E6/B5/B6f,4h[2:1],3>6[2:1],5h[2:1],4>5[4:3]*>5[4:3],{16},,,,,,E3,E2,{8}E1,,18,7,6>4[8:1],,,,{1}3b>6b[2:3]*q6[2:3],,{16}74,,6,5,6,5,6,,25,,3,4,3,4,3,,{4}7/8-4[8:1],8/1-5[8:1],1/2-4[8:1]*-6[8:1],2b,
{16}4h[8:1]/6h[8:1],,,3h[8:1]/7h[8:1],,,28,,1-5[8:1],,,,{4}1bp1b[4:1]/E8f/B8/B7,,,{8}1,28,37,,
{16}2h[8:1]/8h[8:1],,,7h[8:1]/3h[8:1],,,46,,5-1[8:1],,,,{4}5bpp5b[4:1]*qq5b[4:1]/B3/B4/E4f,,,{8},73,73,,
{16}2/B5,,,2/B7/B8,,,3h[8:1]/B3/B4/E4f,,,,,,6/B4,,,6/B2/B1,,,5h[8:1]/B6/B5/E6f,,,,,,{2}1h[1:1],Ch[2:3],,1,1-5>1[4:7],,,6h[1:2],,{16}E1,E2,E3,,{4},,,2p8[4:3],,,,{4}5,5,58,58,{8}61,1,61,1,72,2,72,2,83,83,17,17,{32}8x,7x,6x,5x,1x,2x,3x,4x,7x,6x,5x,4x,3x,2x,1x,8x,
{4}Ch[2:1]/7x,,7-3[8:1],7b,
{16}2-5[8:1],,,1,2,,8,,7-4[8:1],1,,1,7,,3,,3v8[8:1]/5,,,5,3,,6,,7v4[8:1],8,,8,7,,1,,
2v5[8:1]/6,,,7,2,,8,,7-5-1[16:3],1,,1,7,,4,,4v1[8:1],,,2,4,,3,,8-5[8:1],2,,2,8b,,,,
2v5[8:1],,3,5,2,,6,,7-3[8:1],5,,5,7-5[8:1],,4,,7v4[8:1],,,8,7,,1,,2-6[8:1],8,,8,2-4[8:1],,7,,2v5[8:1],,,1,2,,7,,6-8-4[16:3],4,,4,6,,3,,1-5[8:1],,,2,1,,3,,4-8[8:1]*-1[8:1],,35,,4b,,,,
8x-4[8:1],,6,5,8-2[8:1],,3,,8-6[8:1],4,,4,8,,3,,1x-5[8:1],,3,4,1-7[8:1],,6,,1-3[8:1],5,,5,1,,6,,7x-2[8:1],,6,5,7-3[8:1],,5,,7-4[8:1],4,,4,7,,3,,2x-6[8:1],,3,4,2-5[8:1],,7,,2-4[8:1],6,,6,2,,5,,
{16}6b,5,6,5,8,1,8,1,4,3,5,3,4,2h[16:1],,,2b,8,2,8,5,6,5,6,3,4,2,4,3,4h[16:1],,,3b,4,3,5,3,6,3,7,3b,3,8,8,5,5,1,1,{32}4b,3,2,1,8,7,6,5,4bx,3x,2x,1x,8x,7x,6x,5x,{64}A4f/B4,E4,A3/B3,E3,A2/B2,E2,A1/B1,E1,A8/B8,E8,A7/B7,E7,A6/B6,E6,A5/B5,E5,{16},,8x,7x,
6h[4:1],,,,1,,2,2h[16:3],,,3h[8:1],,4h[8:1],,5h[8:1],,{4}6-8[8:1],6/5-1[8:1],5/4-2[8:1],4-6-8[16:4]/3,
4,{16},,1,8,1>4[4:1],,,7,,,8,,2,3,4,5,3,4,5,6,4,5,6,7,8,,3,5,3-8[8:1],,,,,,4,4,4pp5[4:1],,,1,,,2,,3h[8:1],,,43,,,6/4h[8:3],,7,,8,,1h[4:1],,,,8h[2:1],,,,7,,,,7,,6,,5,,4h[8:1]/5h[8:1],,,,E4,E6,B1,B8,B4,B5,E2,E8,4,5,2,7,3,6,
B1/E1/E2/B5/E5/E6f/A1/A5,,,,2b-4-6[4:1],,,6,2,,8,,1,,1,,1h[8:3]/6,,,7,,,8h[2:1],,,,,,7,,7,6,5-7-1[4:1],,,,5,,2h[8:3],,,,,,3h[4:1],,,,4-2-7[4:1],,,5,4,,6h[2:1],,,,8,,1,,2,,
3b,4,3,4,2,8,2,8,1,6,1,6,4,5,4,5,3b,4,2,6,5,7,1,8,1,7,1b,6,1b,5,1b,4,1b,1,5,5,3,3,7b,7,{32}3b,4,5,6,7,8,1,2,{32}7b/3,6x,5x,4x,3x,2x,1x,8x,{16}7bx/Cf,,,3b/Cf,,,6b/B2/E3/E2f/A2,,,,1b/A5/B5/E6/E5,,,,,,
{16}46,,,24,,,2-6[8:1]/4-7[8:1],,,,,,,,,,78,,,7,8>4[8:3],,7,,,,6,,7,,8,,
{16}13,,,82,,,7-3[8:1]/1-5[8:1],,,,,,,,,,21,,,2,1-7-5[4:1],,2,,,,3,,3,,3,,
{8}3h[4:1]/4,,7,,6h[4:1]/5,,2,,34,1,65,8,12,4,78,56,{16}3,4,2,5,1,6,8,7,2,1,3,8,4,7,5,6,{32}2x,3x,4x,5x,{16}8,2,6,3,7,1,5,4,6,2-6[16:1],8,4,6,2,,,
