&title=What You Love
&artist=garlagan
&first=0
&des=Adam Torzsas
&lv_5=13+
&inote_5=(128)
{1},6h[16:54],{1},,
{16},,,,,,,,,,1b,,,1b,,,
{16}2h[16:3]/5,,,4,3,,6,,5-3[10:1]*-7[10:1],,,,,,,,
{16}7h[16:3]/2,,,5,6,,3,,4-7[10:1]*-1[8:1],,,,,,,,
{16}8h[16:3]/4,,,3,7V58[4:1],,2,,2-5[8:1],,,,,,,,{4}3b<3[8:3]/7b,,{16},,8h[8:1],,,5h[8:1]/3h[8:1],,,
{16}6b/2b,,2,1,,8,1,,5/6,,7h[8:1],,4h[8:1],,3,,
{16}6,,3,4,,2,1,,3>7[8:1]*p7[8:1],,4/6,,,,,,
{16}2,,2,8,,8,5,,7h[8:1],,6h[8:1],,5h[8:1],,4h[8:1],,
{16}6,,3p6[16:3],4,,4,2h[384:1],,,,1b,,,1b,,,
{16}2/5,,7,8,,1,8,,4/3,,2h[8:1],,5h[8:1],,6,,
{16}3,,6,5,,7,8,,6<2[8:1]*q2[8:1],,5/3,,,,,,
{16}7,,7,1,,1,4,,2h[8:1],,3h[8:1],,4h[8:1],,5h[8:1],,
{16}3,,6q3[16:3],5,,5,7h[16:69],,,,4b-8[12:1],,,4b,,,
{1},,,,
{16}3,3,5h[8:1],,2,,3h[8:1]/4,,1,,4,4,7h[8:1],,5h[8:1],,
{16}2,2,4h[8:1],,1,,3/5,,8-4[8:1],,4,4qq1[16:19]*pp7[16:19],8b,,,,
{1},
{16},,,,2,6,3,5,2h[16:7],,,4h[16:4],,,,,
{16}1b-4[8:1]/5b,,2,4,1,,6h[8:1],,2,2,4h[8:1],,3h[8:1],,1,,
{16}3/7-1[10:1],,6,,7/5-2[10:1],,3,,6/5w1[8:1],,7,,,,,,
{16}8-5[8:1]/4,,7,5,8,,3h[8:1],,7,7,5h[8:1],,6h[8:1],,8,,
{16}6/2-8[10:1],,3,,2/4-7[10:1],,6,,3/4w8[8:1],,2,,,,,,
{16}1-4[8:1]/5,,2,4,1,,6h[8:1],,2<4[8:2],3,5,,4b<2[8:2],,,,
{16},,,,6,5,3,3,7>5[16:3],6,4,4,7b,,,,
{16}1,1,1,,7h[8:1]/4,,5h[8:1],,2h[8:1],,4h,,3h[8:1]/6h,,4h,,
{16}2/6-3[10:1],,7,,1-5[8:1]/6,,2,,1/8,,8,,8h[32:1],,,,
{16}8h[16:1],,,,8h[8:1],,,,4h[16:1],7h[16:1],3h[16:1],6h[16:1],{32}2b,1,8,7,6,5,4,3,
{32}2pp2[8:2],1,8,7,6,5,4,3,{16}2,,,,,,7/1,2b/6b,3/5,,,,
{16}2,2,2,,7h[8:1]/3,,5h[8:1],,{12}7,1,4,2,8,5,
{16}3/8>3[8:1],,7,,8/5p8[8:1],,4,,5/6,,7h[8:1],,1,7,3,5,
{16}2h[8:1],,4,4,3,5,1,,3<5[10:1]/4,,7/2,7,3,,6h[4:1],,
{16}7,,4h[4:1],,3,,5h[8:1],,{24}1,2,3,5,6,7,1b/8b,,,,,,
{16}7h[8:1]/2,,5,5,6,4,8,,6>4[10:1]/5,,2/7,2,6,,3h[4:1],,
{16}2,,5h[4:1],,6,,4h[8:1],,8,,2/4,,1,6,2,2,
{16}5h[8:1],,2,7,3,3,6h[8:1],,3,8,4,4,7,7,5,6,
{16}3,4,1bqq4[8:23]/5<3[8:23],,{4},,,{1},,
{16},,,,,,,,,,2,,,2,,,
{8}5h[4:4]/3h[16:4],,,,6h[8:1],,,,
{16}3h[16:6],,,4h[16:3],,,,,5h[8:1]/2h[8:1],,,,,,,,
{8}4h[4:4]/6h[16:4],,,,3h[8:1],,,,
{16}6h[16:6],,,5h[16:3],,,,,4h[8:1]/7h[8:1],,,,,1/6,,,
{16}2,5,2,5,3,4,3,,5h[8:4]/2h[8:1],,,,,,,,
{16}3h[16:6],,,5h[16:3],,,,,2h[8:1]/6h[8:1],,,,,,,,
{8}4h[4:4]/6h[16:4],,,,2h[8:1],,,,
{16}8h[16:3],,,4h[16:3],,,6,,2/4,,8h[8:1],,,5h[8:1]/3h[8:1],,,
{16}6b/2b,,2,1,,3,4,,{16}5/6,7,8h[8:1]/1b,,{24}5,6,7,8,1,2,
{16}3/4,,6,5,7,,{24}8/4,3/7,2/6,1z5[8:1]*s5[8:1]/5,,,3/7,,,,,,,,,
{16}3,,3,8,,8,5,,{24}7,6,5,3,2,1,6,7,8,2,3,4,
{16}8,2,7>5[16:3],3,6,4,7b,,,,1b,,,1b,,,
{16}2h[8:1]/5,,7,8,,6,5,,{16}4/3,2,1h[8:1]/8b,,{24}4h,3h,2h,1h,8h,7h,
{16}6/5,,3,4,2,,{24}1/5,6/2,7/3,8h[16:4]/4,,,{16}5h[8:1],,,5h[8:1]/6h[8:1],,,
{16}1h[8:1]/4h[8:1],,,3h[8:1]/6h[8:1],,,1>4[8:1]/8,,4<8[8:1]*q1[8:1]/5,,,,,,,,
{32}8b/2,3,4,5,,,1b/7,6,5,4,,,1b,2/8,3/7,4/6,5,,,,{16}8b,,,8b,,,
{16}2/6h[8:1],,5h[8:1],,3>8[8:1],,5,,6p4[8:2],,,,,,,,
{16}2h[8:1],,4>5[8:2],3,5,,8z4[8:2],,,,,,,,,,
{16}7/3h[8:1],,4h[8:1],,6<1[8:1],,4,,3q5[8:2],,,,,,,,
{16}7h[8:1],,5<4[8:2],6,4,,1,,,,5bw1[10:1],,,5b,,,
{2},
E
