&title=Thrash force
&artist=KAH vs. E0ri4
&first=0.02
&des=Crystal Willing
&lv_5=14
&inote_5=(190){1},
{1},
{16}2,4,3,5,4,6,5,7,8xhb[4:1]/4xhb[4:1],,,,,,2xhb[4:1]/6xhb[4:1],,
{8},,B2/B6,,3xhb[4:1]/7xhb[4:1],,,1xhb[4:1]/5xhb[4:1],
{8},,B1/B5,,2xhb[4:1]/6xhb[4:1],,,4xhb[4:1]/5xhb[4:1],
{8},,C,,8b/4b,6,5,3xb/7xb,
{16}5,,4,,6b/2b,,,,3b/7b,,6,5,6,,7hb[4:1]/3hb[4:1],,
{16},,,,1b/8b,,,,2b/6b,,3,4,3,,2hb[4:1]/6hb[4:1],,
{16},,,,4b/5b,,,,2b/8b,,3,4,3,,1b/7b,,
{16}6,5,6,,7b-1[8:1]/4b,,,,3/7,,3,,3,,3,,
{16}3,1,3,8,3,7,2,6,1bV36-8v5[4:13]*V74-2v5[4:13],,,,,,,,
{1},
{1},
{1},
{8},,,,5/4,4,4,4,
{8}6/4,6,6,6,6/2,2,2,2,
{16}2/8,,8,,8,,8,,1,7,2,8,4,6,3,5,
{24}1,,,2,3,4,5x/8x,,,7,6,5,4x/1bv3b[16:6]*V73-5[2:1],,,,,,,,,,,,
{4},,6x-1[8:1]/4x,6/2-5[8:1],
{8}8-4[8:1]/2,,3-1[8:1]/8,,3/6,,7/8,1/6,
{16}2/5,,,,3h[1:0],5h[1:0],3h[1:0],5h[1:0],2h[1:0]/6-4[8:1],,2,,6/2,,2,,
{16}6x-2[8:1]/2x-6[8:1],,,,2/6,,,,1/7,,8,8,8,,1/7,,
{16}6-4[8:1]/2-4[8:1],,,,2v1[32:5]/6,,,,6x/2x,,,,6,,7,,
{16}2,8,2,8,2,8,2,8,3-5[8:1],,3,,7-4[8:1],,7,,
{16}2b,,,,3,5,3,5,3-1[8:1],,3,,5,,6,,
{16}8,7,8,7,1x/6x,,2,,3xb/5xb,,,1xb/8xb,,,6xb/4xb,,
{16}3xb-7[8:1]/7xb-3[8:1],,2/8,,3b/7b,,,,8x<5[8:1],,8,,1,,2,,
{8}3>8[8:1],3,4,5,6>3[8:1],6,7,8,
{16}1,,2,,3,4,3,4,2>5[8:1],,2,,1,,8,,
{8}7>2[8:1],7,6,5,4<7[8:1],4,3,2,
{16}1,,8b,8b,8b,,,,2/6,,3,4,3,,2,,
{16}1/7,,6,,2/5,,3,,7/4,,6,5,6,,7,,
{16}2/8,,3,,4/7,,6,,3,5,2,2,6,4,7,7,
{16}4,8,3,7,4,6,3,5,2,,8,1,8,1,8,1,
{32}7,6,5,4,3,2,1,8,
{16}7/3,,,,1xw5[8:1],1x,1x,1x,1x,,,,
{8}7x/3xb-5[8:1],7,7,7,7/6,7,7,7,
{8}7/6b-2[8:1],7,7,7,7/1,7,7,7,
{8}8/2b-4[8:1],8,8,8,8/5,8,8,8,
{8}8/5b-1[8:1],8,8,8,8xb/2xb,,7/3,,
{8}2h[16:1]/6b-4[8:1],2h[16:1],2h[16:1],2h[16:1],2h[16:1]/3,2h[16:1],2h[16:1],2h[16:1],
{8}2h[16:1]/3b-7[8:1],2h[16:1],2h[16:1],2h[16:1],2h[16:1]/8,2h[16:1],2h[16:1],2h[16:1],
{8}1h[16:1]/7b-5[8:1],1h[16:1],1h[16:1],1h[16:1],1h[16:1]/4,1h[16:1],1h[16:1],1h[16:1],
{8}1h[16:1]/4b-8[8:1],1h[16:1],1h[16:1],1h[16:1],1xb>8[1:2]/7xb,,,,
{1},
{16},,,,,,,,1,,,1,,,1,,
{16}8/2,,8/2,,8/2,,,,5,,,5,,,5,,
{16}6/4,,6/4,,6/4,,3,5,2,,2,,2,,2,,
{8}2/6,6,6,6,6/4,4,4,4,
{16}4/8,,8,,8,,8,,1,7,
{32}2xb,3,4,5,8,,,,7xb,6,5,4,
{32}1,,,,2b,3,4,5,8,,,,7b,6,5,4,
{16}1b>4[8:1],,,,1<6[8:1],,,,
{4}1w5[8:1],1xb,8xz4[8:23]/2xb-6[1:1],,
{1},
{4},,7x-4[8:5],,
{1},
{8},,,,3h[4:1]/5h[4:1],,,3h[4:1]/5-7V16[1:1],
{1},
{8},,,,6h[4:1]/4h[4:1],,,6h[4:1]/4-2V83[1:1],
{1},
{16},,,,,,,,3h[4:3]/7h[4:1],,,,,,7h[8:3],,
{2},7V16[2:1]/3V52[2:1],
{8},,,,6h[4:3]/2h[4:1],,,2h[8:3],
{2},2V41[2:1]/6V85[2:1],
{16},,,,,,,,2,4,,2h[8:1],,4,2,,
{16}6,4,,6h[8:1],,4,6,,3,5,,3h[8:1],,5,3,,
{16}7,5,,7h[8:1],,5,7,,4,6,,4h[8:1],,6,4,,
{16}5,3,,5h[8:1],,3,5,,6b/2b>5[16:3],,,,2/5,6,7,8,
{16}1,2,3,4,5,6,7,8,1b>8[4:5]/Cf,,,,,,,,
{1},
{16}C,,,,,,,,2b,1,2,1,2,,3,4,
{16}3,4,3,,,,,,6b,5,6,5,6,,7,8,
{16}7,8,7,,,,,,1b>8b[4:5]/Cf,,,,,,,,
{1},
{16}C,,,,,,,,2b,1,3,8,2,,7,8,
{16}6,1,7,,,,,,3b,4,2,5,3,,6,5,
{16}7x,8x,1x,2x,3x,4x,5x,6x,7xhb[2:3]/Cf,,,,,,,,
{1},
{2}B3/A3,3h[2:3]/B7/A7,
{2}E1,B6/A6,
{4}E5,,B1/A1/5h[2:3],,
{4}E8,,E2,,
{4}E7,,1h[2:1]/B5,,
{8}7h[2:1],,,,1b,,2b/8b,2b/8b,
{32}1b,2/8,3/7,4/6,5x,,,,3xb-8[8:1]/7xb,,,,,,,,
{8}7-5[8:1]/3-5[8:1],,7/3,,
{16}7x/3x,,6,5,7,,8,,8-5[8:1]/4,,,,2-4[8:1]/8,,,,
{16}7-5[8:1]/2<7[8:1],,,,7V13[4:1]/2,,,,4,,5,,6,,7,,
{16}8/3,,2,1,2,,3/8,,7-5[8:1]/4,,,,7/3-8[8:1],,2,,
{8}7/3,,6x-1[8:1]/1x,5,6-4[8:1]/2-4[8:1],,6/2,,
{16}2x/6x,,3,4,2,,1,,1-4[8:1]/5,,,,7-5[8:1]/1,,,,
{16}2-4[8:1]/7-1[8:1],,,,2/7,,,,8x/5x,,7,4,,6,3,,
{16}5-1[8:1],,,,5/2,,3,,8x/4x,,7,3,,6,2,,
{16}5b/1b,1/5,,3b/7b,3>8[8:1]/7<5[8:1],,4,,3/7v4[8:1],,,,1x/7x,,,,
{16}2/5,,3,4,2,,1,,1-5[8:1]/5,,,,7-3[8:1]/1,,,,
{8}2<7[8:1]/7<4[8:1],,7V13[4:1]/2,,3,4,5,6,
{16}7/3,,2,8,3,,4,,7b/5b,,,1b/8b,,,2b/4b,,
{16},1b/8b-4[16:1],,,1b/8b,,2,,5x/3x,,3,,6/4,,6,,
{16}5/3,,6,,7,1,7,1,7,,7,,7/1,,7,,
{16}1/7,,2,,3,5,3,5,4,6,5,7,4,8,3,7,
{16}2,6,
{24}1,7,1,
{16}7,,2,4,3xb/5xb,,,4b/6b,,,1b/7b,,
{16},3b/5b,,,6/4,,6,,7-5[8:1],,7,,7/1,,,,
{16}2-4[8:1],,2,,2/8-4[8:1],,,,1-3[8:1]/8,,,,1/5-7[8:1],,,,
{16}1-6[8:1]*-4[8:1]/5,,,,1,,,,7,,7,1h[8:1],,8,2h[8:1],,
{16}1,,1,,3/8,,2,1,2,,8,3h[8:1],,7,4h[8:1],,
{16}6,,6,,7V51[4:1]/4,,,,7/2,,2,,3,,4,,
{16}8/4,,7,5,6,,7/4,,3,,2,8,2,8,2,,
{16}3-5[8:1]/7,,7,,3b/7,,7,,3x/7x,,2,8h[8:1],,1,7h[8:1],,
{16}2,6h[8:1],,3,5h[8:1],,2,,2b/6b,,7,1h[8:1],,8,2h[8:1],,
{16}7,3h[8:1],,6,4h[8:1],,7,,7b-1[8:1]/3b,,,,7/2,,,,
{16}3-5[8:1],,3,,3/8<5[8:1],,,,8-2[8:1]*-3[8:1],,,,8-6[8:1]*-5[8:1],,,,
{16}8>3[8:1],,,,8/4x,,5,,6,,7,8,7,,1/6,,
{16}2/5,,3,4,3,,2,,1b/7b,,,5b/6b,,,2b/8b,,
{16},3b/4b<7[8:1],,,1,,2,,3,,3,,3/7,,6,,
{16}5/3,,6/2,,7,1,7,1,7,,7,,7/1,,7,,
{16}1/7,,2/6,,3,5,4,6,
{24}4,3,2,8,7,6,3,2,1,7,6,5,
{24}3,2,1,7,8,7,8,7,6,5/1,2,3,4/8b,,,
{16}7h[1:0],5h[1:0],7h[1:0],5h[1:0],7h[1:0],5h[1:0],
{8}7h[1:0],8,1b-5[8:1]/2b-4[8:1],,1bV72V46[1:2]/2b`Cf,,,,
{1},
{1},
E
