&title=【粪】脳漿炸裂ガール
&artist=れるりり/初音ミク/GUMI
&first=0
&lv_6=14+
&des_6=Taxchan v.s. qiuko
&des=Taxchan v.s. qiuko
&inote_6=
(155){4},{8},,,,,,5-8[4:1],
6,{16}4h[16:1],,,3h[16:1],,,1,8,,,{8}2h[4:1],
,1,{16}8,7,{8}6,{16}1,4,2,5,3,6,{8}4,
4-1[4:1],3,{16}5h[16:1],,,6h[16:1],,,8,1,,,{8}7h[4:1],
,8,{16}1,2,{8}3,{16}8,5,7,4,6,3,{8}5,
2b,8/1,{16}7,6,{8}5h[8:1],{16}4,3/6,{8}2h[8:1]/7h[8:1],,7-3[8:5]/2-6[8:1],
,7/2b,{16},,,,7,6,{8}7,{16}8,1,{8}2,
7,1/8,{16}2,3,{8}4h[8:1],{16}5,6/3,{8}7h[8:1]/2h[8:1],,2-6[8:5]/7-3[8:1],
,2b/7,{16},,,,2,3,{8}2,{16}1,8,{8}7/5,
{16}3b,4,1,8,5,7,2,3,8,6,1v6[8:1]*v4[8:7],7,{8}3,1b,
,5,{16}2,3,{8}2,{16}1,8,{8}1,{16}5,5,{8}3,
{16}6,5,8,1,4,2,7,6,1,3,8v3[8:1]*v5[8:7],2,{8}6,8b,
,4,{16}7,6,{8}7,{16}8,1,{8}8,{16}4,4,{8}6,
{16}2b,4h[8:1],,7,{8}5h[8:1],{16}2,4h[8:1],,7,{8}5h[8:1],{16}1>4[8:1],6,,6,
{8}1<6[8:1],5,1-5[8:1],5,1,6,6/7,{16}1,1,
{8}2/3,4,6/7,{16}5,5,2,5,2,5,6,5,6,5,
{8}7-3[8:1],8,{16}7/3,4,5,6,{8}7/2-6[8:1],1,{16}2/6,5,4,3,
{8}7h[8:1],{16}6,8,6,8,{8}6,{16}3,4,2,2,6,5,7,7,
1-5[8:1],1,8-4[8:1],8,{8}1,8,2-5[8:1],3-8[8:1],2,3,
4,1/2,{16}7<4[8:1],8,,8,{8}7,8-3[8:1],3/7,8,
4-1[8:1],{16}4,4,{8}6<1[8:1],{16}6,6,{8}2,2,{16}6v5[4:3]*-2[8:1],6,,6,
,,,,,,,,,,,,8,7,6,5,
{4}4h[4:3],{16},,,,,,,,3,2,3,2,
{24}1,8,7,6,5,4,{4}7h[8:9],,,,{16},,{32}3,
4,5,6,{16}7,3,6,4,7,5,6,6,
5>2[8:1],5,,5,{8}5,{16}6<1[8:1],6,,6,{8}6,5-1[8:1],{16}5,5,
{8}5,8,7,{16}6,5,6,5,4,3,{24}1,4,2,5,3,6,
{8}4-8[8:1],{16}4,4,{8}5-1[8:1],{16}5,5,{8}4-8[8:1],{16}4,4,6,6,,7,
{8}1>4[8:1],8<5[8:1],1-5[8:1],8-4[8:1],1-6[8:1],8-3[8:1],1,8,
5,{16}4,5,3,4,{8}2,{16}1b,1b,{8}1b,{16}8-3[8:1],7,4-7[8:1],5,
{8}8,4,{16}1,8,4,5,{8}2V46[4:1],5/8,{16}2/6,7,8,1,
{8}2-5[8:1],5-8[8:1],4,3,2-5[8:1],5,2,1h[8:1],
{24}8,7,6,5,4,3,2/1,8,7,6,5,4,3,2,1,8,7/3,6/2,5/1,8/4,3/7,2b/6b,,,{8}8-4[4:1],
,,,,3,4,{16}2,3,
{8}5,6,7,{16}8,5,,,4,5,3,5,{8}4,
{12}3/4,{24}1,8,,4,{12}5,{24}1,8,,5,{12}6,{24}1,8,,4,{12}5,1h[6:1],,2,
{24}2,3,,3,{12}4,{24}4,5,,5,{8}4,2b/3b,{16}5-1[16:1],5,5,5,
{2}5h[8:3],{12}5,{24}5,4,,4,{12}3,{24}3,2,,2,
{12}3,{24}3,2,,2,{12}6,{24}6,7,,7,{8}6/7,8/1,2/3,4/5,
{12}8b/5b,1,2,3/7,4,5,6b/1b,5,4,3/7,2,1,
{16}6,5,6,5,4,5,4,5,4,3,4,3,{4}5b/2b,
,1-3[8:1]*-5[8:1],1b-4[8:1]*-6[8:1],1b-5[8:1]*-7[8:1],
1b-4[8:1]*-6[8:1],1b,{8}5/3,7/8,{16}1-6[16:1]/2-5[8:3],1/2,,1b/2,
,,,,7,7,,6,4,3,5,6,3,2,7,8,
1,2,8,7,1-4[8:1],2,8-5[8:1],7,{8}1>4[8:1],8<5[8:1],1,8,
2h[4:1],1,8-6[8:1]*-4[8:1],4,{4}8b-5[8:1]*-3[8:1],8b-4[8:1]*-2[8:1],
8b-5[8:1]*-3[8:1],8b,{8}4/6,2/1,{16}8-3[16:1]/7-4[8:3],8/7,,8b/7,
,,,,2,2,,3,5,3,5,3,1,3,1,3,
1,7,1,7,1,3,5,3,6,7,6,5,6<8[8:1],7,6>3[8:1],5,
{8}6,6,1-3[8:1]*-5[8:1],5,{4}1b-4[8:1]*-6[8:1],1b-5[8:1]*-7[8:1],
1b-4[8:1]*-6[8:1],1b,{8}5/3,7/8,{16}2-7[16:1]/6-3[8:3],2/6,,2b/6,
,,,,8,8,,7,6,4,4,4,7,4,4,4,
8,4,4,4,1,4,4,4,{8}8b-3[8:1],8-5[8:1],{4}8-4[4:1],
{8},1,{4}8-6[8:1]*-4[8:1],8b-5[8:1]*-3[8:1],8b-4[8:1]*-2[8:1],
8b-5[8:1]*-3[8:1],8b,{8}4/6,2/1,{16}7-2[16:1]/3-6[8:3],7/3,,7b/3,
,,,,1,1,,8,4,5,4,5,3,6,3,6,
2,7,2,7,1,8,2,7,1b,8,1,8,1,8,1,8,
1/8,1/8,1/8,1/8,1/8,2/7,{8}3/6,{2}4b>1[16:1]/5b<8[8:9],
{4},,1,2,
3,4/5,{8}4/6,2/8,{16}7<4[8:1],8,,8,
{8}7,{16}3,3h[16:3],,,{8}6,5/3,4/6,{16}2,8,{8}2,
{16}8,5,7,4,6,3,{8}5,5/3,7/1,{16}2>5[8:1],1,,1,
{8}2,{16}6,6h[16:3],,,{8}3,4/6,5/3,{16}7,1,{8}7,
{16}1,4,2,5,3,6,{8}4,4/6,2/8,{16}7<4[8:1],8,,8,
{8}7,{16}3,3h[16:3],,,{8}6,5/3,7/1,{16}2,2b/4b,,7,
{8}7b/5b,{16}8/1,1b/8b,,4/5,{8}4b/5b,3,7h[8:1],{16}2,6h[8:1],,1,
{8}5h[8:1],{16}8,4h[8:1],,7h[16:3],{8}3h[8:1],{32},,,,7/3,8/4,1/5,2/6,3/7,4/8,5/1,6/2,{8}7/3,
E
