&title=ɘʞɒiɿA/明有
&artist=ƧIIИƆA
&first=0.4
&des=人谱做置设请
&lv_5=41
&inote_1={128}A1/D2/D3/A3/D4/A4/E2/B1/B2/E3/B3/E4/B4/A8/D8/D7/A6/D6/A5/E8/B8/B7/E7/B6/E6/B5/Cf/A2/A7/D1/D5A1/D2/D3/A3/D4/A4/E2/B1/B2/E3/B3/E4/B4/A8/D8/D7/A6/D6/A5/E8/B8/B7/E7/B6/E6/B5/Cf/A2/A7/D1/D5,A1/D2/D3/A3/D4/A4/E2/B1/B2/E3/B3/E4/B4/A8/D8/D7/A6/D6/A5/E8/B8/B7/E7/B6/E6/B5/Cf/A2/A7/D1/D5,A1/D2/D3/A3/D4/A4/E2/B1/B2/E3/B3/E4/B4/A8/D8/D7/A6/D6/A5/E8/B8/B7/E7/B6/E6/B5/Cf/A2/A7/D1/D5,A1/D2/D3/A3/D4/A4/E2/B1/B2/E3/B3/E4/B4/A8/D8/D7/A6/D6/A5/E8/B8/B7/E7/B6/E6/B5/Cf/A2/A7/D1/D5,A1/D2/D3/A3/D4/A4/E2/B1/B2/E3/B3/E4/B4/A8/D8/D7/A6/D6/A5/E8/B8/B7/E7/B6/E6/B5/Cf/A2/A7/D1/D5,A1/D2/D3/A3/D4/A4/E2/B1/B2/E3/B3/E4/B4/A8/D8/D7/A6/D6/A5/E8/B8/B7/E7/B6/E6/B5/Cf/A2/A7/D1/D5,A1/D2/D3/A3/D4/A4/E2/B1/B2/E3/B3/E4/B4/A8/D8/D7/A6/D6/A5/E8/B8/B7/E7/B6/E6/B5/Cf/A2/A7/D1/D5,A1/D2/D3/A3/D4/A4/E2/B1/B2/E3/B3/E4/B4/A8/D8/D7/A6/D6/A5/E8/B8/B7/E7/B6/E6/B5/Cf/A2/A7/D1/D5,A1/D2/D3/A3/D4/A4/E2/B1/B2/E3/B3/E4/B4/A8/D8/D7/A6/D6/A5/E8/B8/B7/E7/B6/E6/B5/Cf/A2/A7/D1/D5,A1/D2/D3/A3/D4/A4/E2/B1/B2/E3/B3/E4/B4/A8/D8/D7/A6/D6/A5/E8/B8/B7/E7/B6/E6/B5/Cf/A2/A7/D1/D5,A1/D2/D3/A3/D4/A4/E2/B1/B2/E3/B3/E4/B4/A8/D8/D7/A6/D6/A5/E8/B8/B7/E7/B6/E6/B5/Cf/A2/A7/D1/D5,A1/D2/D3/A3/D4/A4/E2/B1/B2/E3/B3/E4/B4/A8/D8/D7/A6/D6/A5/E8/B8/B7/E7/B6/E6/B5/Cf/A2/A7/D1/D5,A1/D2/D3/A3/D4/A4/E2/B1/B2/E3/B3/E4/B4/A8/D8/D7/A6/D6/A5/E8/B8/B7/E7/B6/E6/B5/Cf/A2/A7/D1/D5,A1/D2/D3/A3/D4/A4/E2/B1/B2/E3/B3/E4/B4/A8/D8/D7/A6/D6/A5/E8/B8/B7/E7/B6/E6/B5/Cf/A2/A7/D1/D5,A1/D2/D3/A3/D4/A4/E2/B1/B2/E3/B3/E4/B4/A8/D8/D7/A6/D6/A5/E8/B8/B7/E7/B6/E6/B5/Cf/A2/A7/D1/D5,A1/D2/D3/A3/D4/A4/E2/B1/B2/E3/B3/E4/B4/A8/D8/D7/A6/D6/A5/E8/B8/B7/E7/B6/E6/B5/Cf/A2/A7/D1/D5,A1/D2/D3/A3/D4/A4/E2/B1/B2/E3/B3/E4/B4/A8/D8/D7/A6/D6/A5/E8/B8/B7/E7/B6/E6/B5/Cf/A2/A7/D1/D5,A1/D2/D3/A3/D4/A4/E2/B1/B2/E3/B3/E4/B4/A8/D8/D7/A6/D6/A5/E8/B8/B7/E7/B6/E6/B5/Cf/A2/A7/D1/D5,A1/D2/D3/A3/D4/A4/E2/B1/B2/E3/B3/E4/B4/A8/D8/D7/A6/D6/A5/E8/B8/B7/E7/B6/E6/B5/Cf/A2/A7/D1/D5,A1/D2/D3/A3/D4/A4/E2/B1/B2/E3/B3/E4/B4/A8/D8/D7/A6/D6/A5/E8/B8/B7/E7/B6/E6/B5/Cf/A2/A7/D1/D5,A1/D2/D3/A3/D4/A4/E2/B1/B2/E3/B3/E4/B4/A8/D8/D7/A6/D6/A5/E8/B8/B7/E7/B6/E6/B5/Cf/A2/A7/D1/D5,A1/D2/D3/A3/D4/A4/E2/B1/B2/E3/B3/E4/B4/A8/D8/D7/A6/D6/A5/E8/B8/B7/E7/B6/E6/B5/Cf/A2/A7/D1/D5,A1/D2/D3/A3/D4/A4/E2/B1/B2/E3/B3/E4/B4/A8/D8/D7/A6/D6/A5/E8/B8/B7/E7/B6/E6/B5/Cf/A2/A7/D1/D5,A1/D2/D3/A3/D4/A4/E2/B1/B2/E3/B3/E4/B4/A8/D8/D7/A6/D6/A5/E8/B8/B7/E7/B6/E6/B5/Cf/A2/A7/D1/D5,A1/D2/D3/A3/D4/A4/E2/B1/B2/E3/B3/E4/B4/A8/D8/D7/A6/D6/A5/E8/B8/B7/E7/B6/E6/B5/Cf/A2/A7/D1/D5,A1/D2/D3/A3/D4/A4/E2/B1/B2/E3/B3/E4/B4/A8/D8/D7/A6/D6/A5/E8/B8/B7/E7/B6/E6/B5/Cf/A2/A7/D1/D5,A1/D2/D3/A3/D4/A4/E2/B1/B2/E3/B3/E4/B4/A8/D8/D7/A6/D6/A5/E8/B8/B7/E7/B6/E6/B5/Cf/A2/A7/D1/D5,A1/D2/D3/A3/D4/A4/E2/B1/B2/E3/B3/E4/B4/A8/D8/D7/A6/D6/A5/E8/B8/B7/E7/B6/E6/B5/Cf/A2/A7/D1/D5,A1/D2/D3/A3/D4/A4/E2/B1/B2/E3/B3/E4/B4/A8/D8/D7/A6/D6/A5/E8/B8/B7/E7/B6/E6/B5/Cf/A2/A7/D1/D5,A1/D2/D3/A3/D4/A4/E2/B1/B2/E3/B3/E4/B4/A8/D8/D7/A6/D6/A5/E8/B8/B7/E7/B6/E6/B5/Cf/A2/A7/D1/D5,A1/D2/D3/A3/D4/A4/E2/B1/B2/E3/B3/E4/B4/A8/D8/D7/A6/D6/A5/E8/B8/B7/E7/B6/E6/B5/Cf/A2/A7/D1/D5,A1/D2/D3/A3/D4/A4/E2/B1/B2/E3/B3/E4/B4/A8/D8/D7/A6/D6/A5/E8/B8/B7/E7/B6/E6/B5/Cf/A2/A7/D1/D5,A1/D2/D3/A3/D4/A4/E2/B1/B2/E3/B3/E4/B4/A8/D8/D7/A6/D6/A5/E8/B8/B7/E7/B6/E6/B5/Cf/A2/A7/D1/D5,A1/D2/D3/A3/D4/A4/E2/B1/B2/E3/B3/E4/B4/A8/D8/D7/A6/D6/A5/E8/B8/B7/E7/B6/E6/B5/Cf/A2/A7/D1/D5,A1/D2/D3/A3/D4/A4/E2/B1/B2/E3/B3/E4/B4/A8/D8/D7/A6/D6/A5/E8/B8/B7/E7/B6/E6/B5/Cf/A2/A7/D1/D5,A1/D2/D3/A3/D4/A4/E2/B1/B2/E3/B3/E4/B4/A8/D8/D7/A6/D6/A5/E8/B8/B7/E7/B6/E6/B5/Cf/A2/A7/D1/D5,A1/D2/D3/A3/D4/A4/E2/B1/B2/E3/B3/E4/B4/A8/D8/D7/A6/D6/A5/E8/B8/B7/E7/B6/E6/B5/Cf/A2/A7/D1/D5,A1/D2/D3/A3/D4/A4/E2/B1/B2/E3/B3/E4/B4/A8/D8/D7/A6/D6/A5/E8/B8/B7/E7/B6/E6/B5/Cf/A2/A7/D1/D5,A1/D2/D3/A3/D4/A4/E2/B1/B2/E3/B3/E4/B4/A8/D8/D7/A6/D6/A5/E8/B8/B7/E7/B6/E6/B5/Cf/A2/A7/D1/D5,A1/D2/D3/A3/D4/A4/E2/B1/B2/E3/B3/E4/B4/A8/D8/D7/A6/D6/A5/E8/B8/B7/E7/B6/E6/B5/Cf/A2/A7/D1/D5,A1/D2/D3/A3/D4/A4/E2/B1/B2/E3/B3/E4/B4/A8/D8/D7/A6/D6/A5/E8/B8/B7/E7/B6/E6/B5/Cf/A2/A7/D1/D5,A1/D2/D3/A3/D4/A4/E2/B1/B2/E3/B3/E4/B4/A8/D8/D7/A6/D6/A5/E8/B8/B7/E7/B6/E6/B5/Cf/A2/A7/D1/D5,A1/D2/D3/A3/D4/A4/E2/B1/B2/E3/B3/E4/B4/A8/D8/D7/A6/D6/A5/E8/B8/B7/E7/B6/E6/B5/Cf/A2/A7/D1/D5,A1/D2/D3/A3/D4/A4/E2/B1/B2/E3/B3/E4/B4/A8/D8/D7/A6/D6/A5/E8/B8/B7/E7/B6/E6/B5/Cf/A2/A7/D1/D5,A1/D2/D3/A3/D4/A4/E2/B1/B2/E3/B3/E4/B4/A8/D8/D7/A6/D6/A5/E8/B8/B7/E7/B6/E6/B5/Cf/A2/A7/D1/D5,A1/D2/D3/A3/D4/A4/E2/B1/B2/E3/B3/E4/B4/A8/D8/D7/A6/D6/A5/E8/B8/B7/E7/B6/E6/B5/Cf/A2/A7/D1/D5,A1/D2/D3/A3/D4/A4/E2/B1/B2/E3/B3/E4/B4/A8/D8/D7/A6/D6/A5/E8/B8/B7/E7/B6/E6/B5/Cf/A2/A7/D1/D5,A1/D2/D3/A3/D4/A4/E2/B1/B2/E3/B3/E4/B4/A8/D8/D7/A6/D6/A5/E8/B8/B7/E7/B6/E6/B5/Cf/A2/A7/D1/D5,A1/D2/D3/A3/D4/A4/E2/B1/B2/E3/B3/E4/B4/A8/D8/D7/A6/D6/A5/E8/B8/B7/E7/B6/E6/B5/Cf/A2/A7/D1/D5,A1/D2/D3/A3/D4/A4/E2/B1/B2/E3/B3/E4/B4/A8/D8/D7/A6/D6/A5/E8/B8/B7/E7/B6/E6/B5/Cf/A2/A7/D1/D5,A1/D2/D3/A3/D4/A4/E2/B1/B2/E3/B3/E4/B4/A8/D8/D7/A6/D6/A5/E8/B8/B7/E7/B6/E6/B5/Cf/A2/A7/D1/D5,A1/D2/D3/A3/D4/A4/E2/B1/B2/E3/B3/E4/B4/A8/D8/D7/A6/D6/A5/E8/B8/B7/E7/B6/E6/B5/Cf/A2/A7/D1/D5,A1/D2/D3/A3/D4/A4/E2/B1/B2/E3/B3/E4/B4/A8/D8/D7/A6/D6/A5/E8/B8/B7/E7/B6/E6/B5/Cf/A2/A7/D1/D5,A1/D2/D3/A3/D4/A4/E2/B1/B2/E3/B3/E4/B4/A8/D8/D7/A6/D6/A5/E8/B8/B7/E7/B6/E6/B5/Cf/A2/A7/D1/D5,A1/D2/D3/A3/D4/A4/E2/B1/B2/E3/B3/E4/B4/A8/D8/D7/A6/D6/A5/E8/B8/B7/E7/B6/E6/B5/Cf/A2/A7/D1/D5,A1/D2/D3/A3/D4/A4/E2/B1/B2/E3/B3/E4/B4/A8/D8/D7/A6/D6/A5/E8/B8/B7/E7/B6/E6/B5/Cf/A2/A7/D1/D5,A1/D2/D3/A3/D4/A4/E2/B1/B2/E3/B3/E4/B4/A8/D8/D7/A6/D6/A5/E8/B8/B7/E7/B6/E6/B5/Cf/A2/A7/D1/D5,A1/D2/D3/A3/D4/A4/E2/B1/B2/E3/B3/E4/B4/A8/D8/D7/A6/D6/A5/E8/B8/B7/E7/B6/E6/B5/Cf/A2/A7/D1/D5,
&inote_5=(190){1},,,
{4},,,{8},{64},D5f,A4/A5,D4/D6,A3/A6,D3/D7,A2/A7,D2/D8,
{8}1h[8:18]/8h[8:2],,,,8,7h[4:1],,,
6h[4:1],,,5h[4:1],,,4h[4:1],,
,,,,1,8h[4:1],,,7h[4:1],,,6h[4:1],,,5h[4:1]/3h[8:14],,
{1},,,,
{32}4b-1[48:1]/8b-5[48:1],3-8[48:1]/7-4[48:1],2-7[48:1]/6-3[48:1],1-6[48:1]/5-2[48:1],,,,,4b/8b,,,,,,,,,,,,{16},,,,,,
1b,5,1b,4,1b,3,1b,2,1b,8,1b,7,1b,6,1b,5,
1b,5,4,3,2b,7,6,5,4b,1,8,7,6b,3,2,1,
8b,6,5,4,3b,8,7,6,5b,2,1,8,7b,4,3,2,
1b,,1x/8x,2,7,3,6,4,5,,1,,
{32}6h[4:1]/3,2,1,8,7b,,,,
,,,,7h[4:1]/4,3,2,1,8b,,,,,,,,8h[4:1]/5,4,3,2,1b,,,,,,,,6,5,4,3,
{16}2b,,18,2,4,3,7,5,6,,
{32}3h[4:1]/6,7,8,1,2b,,,,,,,,2h[4:1]/5,6,7,8,1b,,,,,,,,1h[4:1]/4,5,6,7,8b,,,,,,,,8h[4:1]/3,4,5,6,7b,,,,{8},1bx/7bx,E5/D5,A6/E6,A3/E4,{16}2bx/7bx,,E3,,E7,,C,,E4,,E6,,,1bp6[8:16]/2V46[8:16],,,,,,,,,,,,,,,,,,,,,,,,,,,,,,,,,,,,,,,,
,,,,,,,,,8h[8:4],,,,,,,,
5h[8:4],,,,,,,,,4,3,2,1,8,7,6,
5,1,8,7,6,4,3,2,1,7,8,7,8,6,1,5,
2,4,3,4,3,4,3,4,3,,42,,42,,1,,
18,,7,,7,,5,,56,,4h[8:1],,,,4h[8:1],,
5,,2h[8:1],,,,2h[8:1],,1,,1-6[8:1],,,,,,
7-3[8:1],,5,,,,,,45,,6,,7,,8,,
1/4h[2:1],,,,3,,,,,,,,2,,,,
1/3pp7[2:1],,,,8,,,,,,,,,,6,,
5,,4,,3/1h[2:1],,,,3,,,,{24},{24}5b,1,5,1,5,
1,5,1,5,1,5,{16}1,4,3,2,1,8,7,6,5/3b,,4b,,
6b,5,6,5,6,5,6,5,6,5,6,5b,7,1,7,1,
7,1,7,1,8,,{32}5q5[4:13],46,7p3b[11.3#384:31]/3p7b[11.3#384:31],
{96}8<2[7.69#384:21],2>8[7.7#384:21]*>8[7.7#384:21],,
{1}1q1[8:25],
{1},,,,,,{8},,,,Cf,,,,,,,,,,,,,,,,{24}B2/B3/E3/B5/B6/E6,,,,,,4x,,,,,,4,3,2,1,8,7,6,5,4,{8}3-7[8:1],
{8}2x/4x,3,,6-4[8:1],7x/8x,6,,2-4[8:1],1x/3x,2,,7x/5-1[8:1]b,6/4,5/3,
,2x/4-1[8:1]b,3/5,4b/6,7,7x/5-8[8:1]b,6/4,5b/3,2,2x/7x,5b<4[4:7]/4bq5[4:13],,,,,,,,,,,,,,,,,,4xh[4:5],,,,,,,,,,,,{16}4b/5b,,5h[16:1]/3h[16:1],,
5h[16:1]/2h[16:1],,5h[16:1]/1h[16:1],,5h[16:1]/8h[16:1],,4h[16:1]/7h[16:1],,3h[16:1]/6h[16:1],,5h[16:1]/2h[16:1],,4h[16:1]/1h[16:1],,3,2,
1,8,4,3,2,1,,78,,1,5,2,4h[8:1],3,,5h[16:1]/4h[16:1]
,,5h[16:1]/6h[16:1],,5h[16:1]/7h[16:1],,8h[16:1]/5h[16:1],,6h[16:1]/1h[16:1],,7h[16:1]/2h[16:1],,8h[16:1]/3h[16:1],,1h[16:1]/4h[16:1],,2,
3,4,5,2,3,4,5,,8/6b-2[8:1],,7,8,6,,,,
2xh[16:1]/4h[16:1],,2xh[16:1]/5h[16:1],,2xh[16:1]/6h[16:1],,2xh[16:1]/7h[16:1],,8h[16:1]/2xh[16:1],,8h[16:1]/3h[16:1],,8h[16:1]/4h[16:1],,8h[16:1]/5h[16:1],,
6,7,8,6,7,8,1,,48,,7,5,6,,8,1,
2/4-6-8[8:1],3,4,,,,,1,2,3,4,1,2,3,4,,
56,,4,8,3,1,2,,16,,7,8,7,,35,,
1b/8b,,{24}1b/8b,7,6,5,2,3,4,,,4p3>5[4:5]/5,,,4,,,{16}4h[4:5],,,,,,,,,,,,,,,,,l,,,
{8},2^5[8:1]/5x,5,5,6,7^5[8:1]/5x,5,5,
3,3x/7x,4q1[16:5],4<8[16:3],,,,,
,2h[8:1],3h[8:1],4h[8:1],5h[8:1],6h[8:1],7h[8:1],,
{48}5,,,A1,D2,A2,{64}5/D3,3h[64:15],{32},{16},{8}5,,{48}5,,,A1,D1,A8,{64}5/D8,7h[64:15],{32},{16},{8}5,,
1^3[8:1],5,5,5,1^7[8:1],5,5,5,
1-3[8:1],5,5,5,1-7[8:1],5,5,5,
,,,,4z8>1s5[8:5]/5s1<8z4[8:5]`A5/D5f/A4,,,,,,,,4x/5x,3b-1[8:1]/6b-8[8:1],,3b/6b,
,,4V25[8:2],4,5,6,7,1,8-6-1-5[8:3],,,4,4,,2b-5[8:1]/3bv6[8:1],,
2/3v8[8:1],,3,,{24}23,4,5,6,7,8,{8}1bx-7[8:1],,3-5-2[8:2]
,3,6-4-7[8:2],6,,1-5[8:1],1,,
6-8-5-1[8:3],6,4-2[8:1],4,,,7-5[8:1]/4,,
3-1-4[8:2],3,6-8-5-1[8:3],6,,2,2,,
{32}E6,E5,E4,E3,E2,E1,E8,E7,{8}6bx>2>8[8:24],3h[4:1],,,2h[4:1],,
,1h[4:1],,,,8,,8,
1h[4:1],,,1h[4:1],,,1h[4:1],,
,1h[4:1],,,,{384}E2,E8,,,,,B2,B7,,,,,
B3,B6,,,,,
,E6/E4/B5/B4,,,,,{16},4x-8V61[8:3],,,,
,,,,,,,,2,2h[8:1],,4,4h[8:1],,6,6h[8:1],
,8,8h[8:1],,,5h[16:1]/1h[16:1],,,6h[16:1]/2h[16:1],,5,4,1,8,7,3,
2,1,7,6,5/1,8h[16:1]/4h[16:1],,,7h[16:1]/3h[16:1],,8,1,2,4,5,6,
2,3,4,6,7,48,5-2[8:1]/1-6[8:1],,2b/6b,,,,,,,,15,26,37,48,15,2h[8:3]/6h[8:3],,,,,,,,,,,,2,6,1,5,8,4,7,3,6,2,5,3,4,2,,18,,8,,78,,7,,67,,6,,56,,5,,45,,4,,34,,3,,23,,2,,12,,1,,18,,27,,56,,34,,2,1,2,,7,8,7,,2-8[8:1],,2,3,,,6-4[8:1],,6,7,,,3,,,4-2[8:1],,4,5,,,8-6[8:1],,,8,1,,,2,,,,2-4[8:1],,1,2,,,7-5[8:1],,8,7,,,2,,,,
{8}57,4,3,2h[4:1],,8,8h[4:1],,1,1h[4:1],,3,3h[4:1],,2,3,4/5,7,7h[4:1],,1,1h[4:1],,8,8h[4:1],,6,6h[4:1],,7,6,45,3,2,1,,4h[4:1],5h[4:1],,3h[4:1],2h[4:1],,3,4,3,2,4h[4:1],5h[4:1],,4h[4:1],3h[4:1],,6h[4:1],7h[4:1],,5h[4:1],4h[4:1],,5h[4:1],6h[4:1],,5,6-2[8:1],,6b/4b,,28,3,47,6,6,5h[4:1],4,4,7h[4:1],8,8,3h[4:1],2,2,1h[4:1],8,7,6,4h[4:1],6,5,3h[4:1],6,5,3h[4:1],5,4,2h[4:1],5,4,4b>1-7-5-3-1[8:20]/1b^6-4-2-8-6[8:26],,,,,,{1},,,
{8},,36,C,E3,E7,E2/B1,E6/B5,E4/B3,E8/B7,,8,8h[8:8],,6,,4,,,1,1h[8:8],,7,,5,,,2,2h[8:4],,8,,6,,3/4,E5,E4,E6,2x/7x,C,E7,E3,,1,1h[8:8],,3,,5,,,8,8h[8:8],,2,,4,,,7,7h[8:4],,1,,3,,5/6,,4/7h[8:4],,,,,,5h[8:4]/6,,,,4^1[8:9],,,,5,,,,,,,,5^8[8:9],,,,,,,,1,,,,36,,,,,,,,5^8[8:9],,,,4,,,,4^1[8:10],,,,5,,,,,,,,4,,,,
