&title=Red-rize "B172 mix"
&artist=wint
&first=0
&des=Pelxuss as みかんいぬ
&lv_5=14+
&inote_5=(172){1},
{8}1b/8b,2,
{16}3,4,3,,5h[8:3],,,6h[16:3],
{8},,8/1,7,
{16}6,5,6,,4h[8:3],,,3h[16:3],
{8},,1b/8b,2,
{16}3,4,3,,5h[8:3],,,6h[16:3],
{8},,8/1,7,
{16}6,5,6,,4h[8:3],,,3h[16:3],
{8},,1b/8b,3/4,
{16}2,5,2,,3/4,,6,4,,3,
{8}5,8b/1b,6/5,
{16}7,4,7,,6/5,,3,5,,6,4,,
{32}1b/8b,2,3,4,5,6,7,8,1,2,3,4,5,6,7,8,1b/5b,4,3,2,1,8,7,6,5,4,3,2,1,8,7,6,
{4}5z1[4:1]/3s7[4:1],,,3b/5b,
{16}2/8,,6,4,,3,5,,1/7-1[8:1],6,2-6[8:1],,7,,2,,7,,3,5,,6,4,,8/2-8[8:1],3,7-3[8:1],,2,,7,,2,,6,4,,3,5,,1/7-1[8:1],6,2-6[8:1],,7,,2,,8,8,8w4[8:1],,1/7,,8,,,,2-5[8:1],6,1/7,,2,,8,,2,4,,6,4,,3-7[8:1]/7,4,6-4[8:1],,3,,6,,1,,7,5,,3,5,,6-2[8:1]/2,5,3-5[8:1],,6,,3,,8,,2,4,,6,4,,3-7[8:1]/7,4,6-4[8:1],,3,,6,,1,1,1w5[8:1],,2/8,,1,,,,3,7,2,8,1,,2/6,,1,1/6,,7,7h[8:1]/2,,5-1[8:1],7,4,6,3b,,2,,7/3,,8,8/3,,2,2h[8:1]/7,,4-8[8:1],2,5b,3,6b,,7,,2/6,,1,1/6,,7,7h[8:1]/2b,,5-1[8:1],7,4,6,3b,,2,,2,8,3b-8[8:1]/7b-4[8:1],,2/8,,3b/7b,,,,1b,5,2b/6b,,4/8,,3/7,,2,2/5,,7,4/7,,3-8[8:1],4,2,5,3b,,6,,6/2,,7,7/4,,2,5/2,,6-1[8:1],5,7b,4,6b,,3,,3/7,,2,2/5,,7,4b/7,,3-8[8:1],4,2,5,3b,,6,,1,7,2b-5[8:1]/6b-1[8:1],,3/5,,2b/6b,,,,8b,4,3b/7b,,1/5,,2-5[8:1],4,3,,2/5,,6,,7,5,6,,7-4[8:1],8,6,1,7,,3,5,3-1[8:1],6,3-5[8:1],,3-7[8:1],,,,,,6,,1/8,,1/2,,2-5[8:1],1,3,8,2,,7,,6,4,5,,3/4,,6-1[8:1],5,7,4,6,,2-5[8:1],8,3/7-3[8:1],,2,,7,,1,1,2/6,,8,8,3/7,,4,6,5,,3-8[8:1]/7-4[8:1],,2/8,,3-6[8:1]/7-2[8:1],,,,3/7,,,,8-5[8:1]/4-1[8:1],,1/5,,4/8,,,,2/6,,2,2/5,,6,4/6,,7-4[8:1],4,6,5,7,,3,,2/5,,1,6,8,7,1,,2-5[8:1]/8-5[8:1],,4/6,,2/8,,,,3h[8:1],,4h[8:1],,2,5h[8:1],,1,6h[8:1],,8,7,1,6,2,5,3,4,2,6,5,7,1h[8:1],,
{32}8,2h[32:3],,,1,3h[32:3],,,8,4h[32:3],,,7,5h[32:3],,,
{16}6h[8:1],,5,6,4,7,3,8,2h[8:1],,4,3,5,2,6,1,
{8}7-4[8:1],1/8-3[8:1],7,8,6-1[8:1],5-2[8:1]/7,6,5,
{16}6h[8:1],,5h[8:1],,7,4h[8:1],,8,3h[8:1],,1,2,8,3,7,4,6,5,7,3,4,2,8h[8:1],,
{32}1,7h[32:3],,,8,6h[32:3],,,1,5h[32:3],,,2,4h[32:3],,,
{16}3h[8:1],,4,3,5,2,6,1,7h[8:1],,5,6,4,7,3,8,
{8}2-5[8:1],8/1-6[8:1],2,1,3-8[8:1],4-7[8:1]/2,3,4,
{16}1h[8:1],,,2h[8:1]/8h[8:1],,,3h[8:1]/7h[8:1],,,,4/6,,
{64}1,2/8,3/7,4/6,
{16}5,,,
{16}8h[8:1],,,7h[8:1]/1h[8:1],,,6h[8:1]/2h[8:1],,,,3/5,,
{64}8,7/1,6/2,5/3,
{16}4,,,3h[8:1],,5,2h[8:1],,6,1,,7/8,,7/8,,2/5,,2/5,,6h[8:1],,4,7h[8:1],,3,8,,2/1,,2/1,,7/4,,7/4,,2h[8:1]/1h[8:1],,,8h[8:1]/3h[8:1],,,7h[8:1]/4h[8:1],,,,5/6,,
{64}2/1,8/3,7/4,6/5,
{16},,,7h[8:1]/8h[8:1],,,1h[8:1]/6h[8:1],,,2h[8:1]/5h[8:1],,,,3/4,,
{64}7/8,1/6,2/5,3/4,
{16},,,6h[8:1],,4,7h[8:1],,3,8,,2/1,,6/5,,7/8,,3/4,,3h[8:1],,5,2h[8:1],,6,1,,7/8,,3/4,,2/1,,6/5,,7h[8:1],,8,6h[8:1],,1,5h[8:1],,2h[8:1],,1,3h[8:1],,8,4,,
{8}7/2,4/5,1/8,3/6,2z6[8:1]/7s3[8:1],,2b/7b,,
{1}4h[2:15]/5h[1:4],,,,{8},
{4}5,6,7,8,1,8,7,
{8}6,5,5,6,6,7,7,8,8,
{32}1,8,7,6,5,,3,2,1,8,7,6,5,,3,2,
{4}1w5[8:1],1,
{16}3/7,,2,,1/5,,7,5,,3,5,,1b/7b,,3/5,,2/8,,6,5,7h[16:3],,1,2h[16:3],,,4b,,7b/8b,,3/5,,8h[8:1],,2,2h[8:1],,4,4h[8:1],,1,5,2b,6,3b,7,4,8,1/5,,4/8,4/8,,3/7,3h[8:3]/7,,6,,5b,,5b,,4,,6/2,,7,,8/4,,2,4,,6,4,,8b/2b,,6/4,,7/1,,3,4,2h[16:3],,8,7h[16:3],,,5b,,2b/1b,,6/4,,1h[8:1],,7,7h[8:1],,5,5h[8:1],,8,4,7b,3,6b,2,5,1,8/4,,5/1,5/1,,2/6,6h[8:3]/2,,3,,4b,,4b,,5,,3/7,,2,,1,8,1,,7h[8:3],,,6h[16:3],,,,,6/2,,7,,8,1,8,,2h[8:3],,,3h[16:3],,,,,3b/7b,,2,,1,8,1,,7h[8:3],,,6h[16:3],,,,,6/2,,7,,8,1,8,,2h[8:3],,,3h[16:3],,,,,1b/8b,,2/5,,7,4,7,,5/6,,2,4,,7,5,,8b/1b,,7/4,,2,5,2,,4/3,,7,5,,2,4,,
{32}8b/1b,7,6,5,4,3,2,1,8,7,6,5,4,3,2,1,8b/4b,5,6,7,8,1,2,3,4,5,6,7,8,1,2,3,
{4}4s8[4:1]/6z2[4:1],,,4b/6b,
{16}1/7,,3,2/4,,6,5/7,,2-6[8:1],1,3/8-4[8:1],,2b,,8,,2,,6,7/5,,3,4/2,,7-3[8:1],8,6b/1b-5[8:1],,7b,,1,,7,,3,2/4,,6,5b/7b,,2-6[8:1],1,3/8-4[8:1],,2b,,8,,1,1,1bw5[8:1],,3b/7b,,1,,,,3b,7,2b/8b,,4/6,,1/8,,2/4,2/4,,5/7,5/7,,1-5[8:1]/2,3/8,4/7-3[8:1],,1b,,7,,1,,7/5,7/5,,4/2,4/2,,8-4[8:1]/7,6/1,5b/2b-6[8:1],,8b,,2,,8,,2/4,2/4,,5/7,5b/7b,,1-5[8:1]/2,3/8,4/7-3[8:1],,1b,,7,,1,1,2b-5[8:1]/8b-5[8:1],,4b/6b,,2/8,,,,1b/8b,1/8,2b/7b,,4/5,,7-4[8:1],5,6/4,,7/4,,3,,2,4,3/5,,2-5[8:1],1,3,8,2/1,,6,4,6-8[8:1],3,6-4[8:1]/2,,6-2[8:1],,,,,,3,,8/1,,8/7,,7-4[8:1],8,6,1,7/8,,2,,3,5,4,,6/5,,3-8[8:1],4,2,5,3/4,,7-4[8:1],1,6/2-6[8:1],,7,,2,,8,8,7/3,,1,1,6/2,,5,3,4,,6-1[8:1]/2-5[8:1],,7/1,,6-3[8:1]/2-7[8:1],,,,6/2,,,,1-4[8:1]/5-8[8:1],,8/4,,5/1,,,,7/3,,2/8,2/8,,4/6,4/6,,2-5[8:1],5,3,4,2/5,,6,,7/4,,8,3,1,2,8/1,,7-4[8:1]/1-4[8:1],,5/3,,7/1,,,,3h[8:1]/5h[8:1],,,1h[8:1]/8h[8:1],,,4h[8:1]/6h[8:1],,,1h[8:1]/8h[8:1],,,2/7,,3/6,3/6,4/5,,,2h[8:1]/8h[8:1],,,4h[8:1]/5h[8:1],,,1h[8:1]/7h[8:1],,,4/5,,1/8,1/8,2/7,,2/4,2/4,,5/7,5/7,,1/3,1/3,,6/8,6/8,,4/5,4/5,3/6,,,2-5[229.33#6:1]/7-4[229.33#6:1],,,2b/7b,
