&title=Tiferet
&artist=xi + Sta
&first=0
&des=AbnormaL
&clock_count=4
&lv_5=14
&inote_5=(140)
{1},,
{16}3b/4b,34,,2^5[8:1],,,1,,8,,7,,
{16}5b/6b,56,,7-5[12:1],,,1,,2,,
{16}4b/3b,43,,2^7[8:1],,,4,,5,,6,,
{16}6-1[12:1],,,2>8[4:1],,,5,,,,,,,,,
{16}3b/4b,34,,2^5[8:1],,,1,,8,,7,,
{16}5b/6b,56,,7-1[12:1],,,4,,3,,
{16}1b/2b,12,,3^6[8:1],,,1,,8,,7,,
{16}6,5,6,4,5,4,6,5,6,3,4,3,
(128)6h,5,7,3,4,2,(118)7h,5,6,2,4,3,
(108)8h,57,57,(98),46,46,(88),35,35,(78),24,24,
(138)1h[16:17],,,,,,,,,,,,,,,,,
(140){16},,3,3,,4,4,,5,5,,,
{16}3,4,2,4,
{16}1-5[12:1],8,,1,,8,,7-3[12:1],,,17,,2-5[8:1],,5,,26,,7,,8-4[12:1]/4,,2,18,,,,,25,,34,,
{16}2-5[12:1],1,,2,,1,,8-4[12:1],,,28,,2h[8:1],,,,
{16}2/5b,,2/4b,,1b^4[12:1]/4,,8,1,,8,,,87,,,,
{16}1-5[12:1],8,,1,,8,,7-3[12:1],,,17,,2,,5,,
{16}3b/4b,,,8b/7b,,,1b/3b,,,,
{16}2-5[8:1],,4,,2,,7-4[8:1],,5,,7,,2,1,{24}8h,7,6,5,4,3,{16},12,,,
{8}8^5[8:1],5-1[8:1],1^4[8:1],,,,
{16}1,2,3,4,
{16}6-8[12:1],5,,6,,1,,2-4[12:1],,,24,,5-1[8:1],,1,,2/5,,3,,4-8[12:1]/8,,6,45,,,,,15,,24,,
{16}3-1[12:1],4,,3,,8,,7-5[12:1],,,75,,4h[8:1],,,,
{16}6b/4,,7b/4,,8b^5[12:1]/5,,1,8,,1,,,12,,,,
{16}3-1[12:1],4,,3,,8,,7-5[12:1],,,75,,4,,7,,
{16}7b/5b,,,1b/2b,,,3b/4b,,,,
{16}2-5[8:1],,4,,2,,7-4[8:1],,5,,7,,2,1,{24}8h,7,6,5,4,3,{16},12,,,
{4}8<2[1:1],,,,{8},1s5[4:1],,,8h[8:1],,
{8}7h[8:1],5,7h[8:1],5,7h[8:1],4,7h[8:1],4,7h[8:1],4-6[8:1],7h[8:1],4,8h[8:1],4-2[8:1],8h[8:1],4-6[8:1],7h[8:1],4-2[8:1],7h[8:1],4-6[8:1],8h[8:1],4-2[8:1],8h[8:1],4-6[8:1],7h[8:1],4-1[8:1],7h[8:1],4-6[8:1],8h[8:1],4-1[8:1],7h[8:1],4,6,1h[8:1],4-7[8:1],2h[8:1],4,3,4>5[4:1],5,4,,
(138){1}8bz4[4:3],{2},
{2}2bz6[2:1],{4},8,,
{24}5,6,,4,5,,{4}2-5[8:1],6-1[8:1],{16}2,,,3,{4}3-8[8:1],7-4[8:1],3,
{16}3h,4,3,5h,4,5,3h,4,2h,4,3h,4,3,5h,4,5,3h,4,2h,4,2h,4,3,5,8h,5,1,5,2,5,3,5,4,,
45,45,,45,,36,,27,
{1}1>8[4:3]/8<1[4:5],{4},,,
(140)
{16}2,4,3,7,5,6,3,3,4,2,,
{16}7,5,6,2,4,3,6,5,6,,
{16}2,4,3,7,5,6,3,4,3,
{16}6,5,7,3,4,2,8,5,7,5,
{16}6,6,5,6,6,4,6,6,3,7,,
{16}3,3,4,3,3,5,4,6,4,,
{16}7,7,5,7,7,4,6,3,6,
{16}7,5,6,2,4,3,8,5,7,,
{32}1,2,3,,6,,2,3,4,,6,,2,,4,,3,,,,
{32}8,7,6,,3,,4,,1,2,3,,6,,2,,4,,3,,,,
{32}8,7,6,,3,,7,6,5,,3,,7,,5,,6,,
{16}2,4,3,6,5,7,3,4,2,,
{16}6,5,6,3,4,3,6,5,6,2,4,2,7,5,7,2,4,2,
{16}7,6,5,7,6,5,7,6,5,2,3,4,2,3,4,2,3,4,
{16}1,2,3,4,{32}8b,1,2,3,4,5,6,7,8,1,2,3,4,5,6,7,8,,,,,,,,
{16}3b/4b,34,,2^5[8:1],,,1,,1,,8,,
{16}3b/4b,34,,2-8[12:1],,,3,,4,,
{16}4b/3b,43,,2q6[8:1],,,1,,1,,8,,
{16}6-1[12:1],,,2>8[16:3],,,5,,,,,,
{16}2b/1b,21,,3h[8:1],,,{24}5,4,5,3,4,3,5,,,
{16}2b/1b,21,,3-5[12:1],,,2,,1,,
{16}1b/2b,12,,3h[8:1],,,{24}5,4,5,3,4,3,5,,,
{16}6,5,6,4,5,4,6,5,6,3,4,3,
(128)6h,5,7,3,4,2,(123)7h,5,6,2,4,3,
(113)8h,5b/7,5/7b,(100),4b/6,4/6b,(92),3b/5,3/5b,(83),2b/4,2/4b,
(138)1h[16:17],,,,,,,,,,,,,,,,,
(140){4},,,
{16}3,4,2,4,
{16}1-5[12:1],8,,1,,8,,{24}8,7,6,{16},17,,{24}2-5[8:1],3,4,{16},,26,,7,,8-4[12:1]/4,,2,18,,,,,25,,34,,
{16}2-5[12:1],1,,2,,1,,{24}8,7,6,{16},28,,{24}1,2,3,4,,,
{16}2/5b,,2/4b,,1b^4[12:1]/4,,{48}8,,7,1,6,,{16},7,,,87,,,,
{16}1-5[12:1],8,,1,,8,,{24}8,7,6,{16},17,,{24}2,3,4,{16},,
{24}2b/8b,7,6,{16}5,{24}1b,2,3,{16}4,{24}7b,6,5,{16}4,,
{16}2-5[8:1],,4,,2,,7-4[8:1],,5,,7,,2,1,{24}8h,7,6,5,4,3,{16},12,
{16}3,4,
{16}6-8[12:1],5,,6,,1,,{24}2,3,4,{16},6,,{24}2/5-1[8:1],3,4,{16},,25,,3,,4-8[12:1]/8,,6,45,,,,,15,,24,,
{16}3-1[12:1],4,,3,,8,,{24}7,6,5,{16},3,,{24}47,6,5,,,,
{16}6b/4,,7b/4,,8b^5[12:1]/5,,{48}1,,2,8,3,,{16},2,,,12,,,,
{16}3-1[12:1],4,,3,,8,,{24}7,6,5,{16},3,,{24}48,7,6,,,,
{24}7b/5b,4,3,{16}2,{24}1b/8b,7,6,{16}5,3b/4b,,,,
{16}2-5[8:1],,4,,2,,7-4[8:1],,5,,7,,2,1,{24}8h,7,6,5,4,3,{16},1-4[80#7:2]/2-7[80#7:2],,,,,,,
{4}1b/2b,,,
{16}3,4,3,5,4,5,3,4,3,5,4,5,2,4,2,4,
{16}3,5,3,6,4,6,3,5,4,5,3,5,2,5,1,5,8V61[1:2]*-4[4:3],
