&title=ぱられループ
&artist=aori
&first=0.04
&des=LTCalter
&clock_count=4
&lv_5=12+
&inote_5=(130)
{1},,
{8}2,,,,,,,,
{96}6,5,,,,,,,,,,,{8},,,,,,,
{96}2,8,,,,,,,,,,,{8},,,,,,,
{96}6,5,,,,,,,,,,,{8},,,,,4q5[8:8],,
3q5[8:6],,,,,,,,,,,,,,,,
{4}3h[4:1],4,7h[4:1],5,
2h[4:1],4,6h[4:1],5,
34,2,56,7h[4:4],
6,4,2,8,
3h[4:1],4,6h[4:1],5,
2h[4:1],1,7h[4:1],8,
2^5[8:4]/1q5[8:4],,,,
6q4[8:4]/5,,,,
{8}2h[8:3],,4,4,6h[8:4],,5>8[8:6],,,,,,,,
7q5[8:4],,1q5[8:2],,,,,,3p6[8:4],,4p6[8:2],,,,,,5q3[8:4],,
6q3[8:2],,,,,,1q7[8:4],,2q7[8:2],,,,,,7<4[8:2],,
2qq5[8:6],,,,,,4pp8[8:6],,,,,,,,,,
2h[8:3],,4,4,6h[8:4],,5<2[8:6],,,,,,,,4-1[8:2],,
1-5[8:2],,5-8[8:2],,8qq4[8:6],,1qq4[8:4],,,,,,,,3^8[8:2],,
8-4[8:2],,4^7[8:2],,7qq2[8:6],,1qq2[8:4],,,,,,,,
7-4[8:2],,4-8[8:2],,8-3[8:2],,3qq6[8:6],,2qq6[8:4],,,,,,,,8,,
7h[8:2]/5h[8:2],,,,3h[8:2]/4h[8:2],,,,
6-4[8:1],,7-3[8:1],,8w4[8:1],,,,
2b-5[8:1],1,8^3[8:1],,8-4[8:1],7,6^1[8:1],,
6-2[8:1],5,4^7[8:1],,4-8[8:1],3,2^5[8:1],,
2-6[8:1],8,7^4[8:1],,7-3[8:1],1,2^7[7:1],,
2,4,6p4[8:3],8pp4[8:2],,,,,
7-4[8:1],8,1^6[8:1],,1-5[8:1],2,3^8[8:1],,
3-7[8:1],4,5^2[8:1],,5-1[8:1],6,7^4[8:1],,
7-3[8:1],1,2^5[8:1],,2-6[8:1],8,7^2[7:1],,
7-3[8:1],5,3qq6[8:3],1V35[8:2],,,,,
2b^5[8:1],1,8-3[8:1],7,6-1[8:1],5,4^7[8:1],,
4-8[8:1],3,2^7[8:1],,2-6[8:1],3,4^1[8:1],,
4-8[8:1],5,6^3[8:1],7,8-4[8:1],1,2^5[8:1],,
2,1,8pp3[8:3],7p4[8:2],,,,,
7^4[8:1],8,1-6[8:1],2,3-8[8:1],4,5^2[8:1],,
5-1[8:1],6,7^2[8:1],,7-3[8:1],6,5^8[8:1],,
5-1[8:1],4,3^6[8:1],2,1-5[8:1],8,7^4[8:1],,
7-3[8:1],8,1V74[8:3],2V84[8:2],3,,,,
7/6^3[8:1],7,7,7,6/5v3[8:1],6,6,6,8/2v3[8:1],8,8,8,7/8-3[8:1],7,7,7,
6/5^3[8:1],6,6,6,5/4v3[8:1],5,5,5,8/1v3[8:1],8,8,8,7h[8:1],1h[8:1],8h[8:1],2,
2/3^6[8:1],2,2,2,3/4v6[8:1],3,3,3,1/7v6[8:1],1,1,1,2/1-6[8:1],2,2,2,
3/4^6[8:1],3,3,3,4/5v6[8:1],4,4,4,
1/8z4[8:2],,,,,,,,
4h[8:3],,,5h[8:3],,,1h[8:3],,,6h[8:3],,,
2h[8:3],,4,6h[8:3],,5,8h[8:3],,7,4h[8:3],,2,
3^1[8:1],5h[8:1],,7^5[8:1],8h[8:1],,1^4[8:1],4h[8:1],,6-3[8:1],4h[8:1],,
2^7[8:1],5h[8:1],,6^3[8:1],8h[8:1],,1-5[8:1],5<1[8:2]*>1[8:2],1,
