&title=Unsinkable Memory
&artist=打打だいず(D-D-Dice)
&first=0
&des=chen
&des_4=reflectW
&des_5=chen
&lv_4=12+
&lv_5=13+
&inote_4=(184){1},s
{8},,,,5<4[1:3]/4,,,,,,,,3,,,,,,,,2,,,,,,,,1,,,,,,,,8-4[8:4],,,,
,,,,3>6[8:5],,,,,,,,8-4[8:4],,,,,,,,3q6[8:6],,,,,,,,8-4[8:4],,,,,,,,2>7[8:5],,,,,,,,8-4[8:4],,,,,,,,2p7[8:6],,,,,,,,5h[8:3],,,3h[8:3],,,1,,8q5[8:3]/4^1[8:3],,,,
,,,,4h[8:3],,,6h[8:3],,,8,,1p4[8:3]/5^8[8:3],,,,,,,,1p6[8:4]/2pp5[8:4],,,,
,,,,7z3[8:4]/8s4[8:4],,,,,,,,
{32}3,,,4,,,2,,6,,,5,,,7,,
{32}2,,,1,,,3,,7,,,8,,,6,,{16}1h[8:4],,,,,,,,5b,,,,,,,,
7-4[8:1]/3-8[8:1],,,,,,,,2-5[8:1]/6-1[8:1],,,,,,,,8-4[8:1],,,,4,,,,2-6[8:1],,,,6,,,,8-5[8:1]/4-1[8:1],,,,,,,,6v8[8:1]/2v4[8:1],,,,,,,,7-4[8:1],,,,4,,,,2-5[8:1],,,,5,,,,8-5[8:1]*-3[8:1],,,,,,,,4-1[8:1]*-7[8:1],,,,,,,,8^5[8:1],,,,4,,,,1^4[8:1],,,,5,,,,3,,3,,5,,5,,1,,1,,7,,7,,3,4,3,4,3,4,3,4,2,5,2,5,2,5,2,5,1-5[16:2],,,,,,,,
{8}6h[4:1],,8,,12,,,5h[8:2]/6,
,8,8,,3,24,,,
{8}7h[4:1],,5,,34,,,7h[8:2]/8,
,2,2,,6,57,,,
{8}1h[4:1],,7,,45,,,2h[8:2]/8,
,4,4,,8,1/7h[8:3],,,
8q4[8:1],,6,,5b/7b,,,2b/4b,,,7b/8b,,,1b/2b,,,
{16}34,,34,,25,,25,,{8}16,,,6h[8:2]/5,
,8,8,,3,24,,,
{8}7h[4:1],,5,,34,,,7h[8:2]/8,
,2,2,,6,57,,,
{8}1h[4:1],,7,,1v4[8:1],8,7,6h[8:2],
,3,3,,4-8[8:1],7,7,,
{8}5h[4:1],,2,,8v5[8:1],1,2,3h[8:2],
,6,6,,5-1[8:1],2,2,,
{8}2b/8b,,5b,,
{16}1b/6b,,,,3b/8b,,,,2b/5b,,,,4b/7b,,,,1b/2b,,,,3b/4b,,,,
5b/6b,,,,7b<8[1:1]/8b,,,,3h[8:7],,,,,,,,
{24},,,,,,,,,,,,3z7[2:1]*s7[2:1],,,,,,,,,,,,,,,,,,,,,,,,
{8}1-6[8:1],1-4[8:1],,,,7^5[8:1],7,8,,8-5[8:1],8,1,,1-5[8:1],1,2,4-1[8:1],4-7[8:1],,,,2^4[8:1],2,1,,1-4[8:1],1,8,,8-4[8:1],8,7,
5-8[8:1],5-2[8:1],,,,7-5[8:1],7,4,,4-8[8:1],4,1,,1-3[8:1],1,7,8-3[8:1],8-5[8:1],,,,2-4[8:1],2,5,,5-1[8:1],5,8,,8-6[8:1],8,2,1,,2h[4:1]/4h[4:1],,
{12},,,8,1,7,8b,,,8,,,7h[4:1]/5h[4:1],,,,,,1b/2b,,,4h[4:1],,,6,,,5,3,6,4b,,,1h[4:1],,,7h[4:1],,,5,,,4b/3b,,,2h[4:1]/5h[4:1],,,
,,,7,5,6,4b,,,8h[4:1],,,2h[4:1],,,4,,,
{12}3b/5b,,,1h[4:1]/7h[4:1],,,,,,2,8,1,
{16}7b,,,,3bv4[8:1],,,,6b^1[8:1],,,,2bv5[8:1],,,,7b<7[2:7],,,,,,,,,,,,,,,,,,,,,,,,,,,,,,,,,,,,,,,,,,,,,,,,,,,,,,,,,,,,,,,,
6b/1,,7,,7,,6/1b,,2,,2,,5b/3,,6,,7b/4,,8,,8,,7/4b,,3,,3,,8/1b,,7,,6b/2,,5,,5,,4b/3,,2,,2,,8b/1,,7,,6b/3,,7,,7,,8b/2,,3,,3,,8b/3,,7,,6b/1,,5,,4,,8b/3,,4,,5,,6b/4,,7,,8b/1,,2,,3,,4b/5,,6,,7,,8b/2,,3,,
43,,43,,52,,52,,
{32}61,,,,61,,,,78,,,,78,,,,7-5[8:1]/8-4[8:1],,,,,,,,
{8}7-3[8:1]/8-2[8:1],,78,,4-1[8:1]/5,,
{16}7h[32:1],,,,8,,8pp3[8:3],,,,4,,5,,6,,7p3[8:1],,,,7/3>8[8:1],,,,4<7[8:1],,,,8-5[8:1],,,,81,,,,4,,4qq7[8:3],,,,7,,6,,5,,4-1[8:1],,,,34,,,,8-6[8:1]/2-6[8:1],,,,8/2>5[8:1],,,,2,,,,6,,6qq3[8:3],,,,2,,1,,8,,7q3[8:1],,,,73,,,,4-1[8:1]/5-8[8:1],,,,,,,,
{12}7h[12:2],,1h[12:2],,5,,2h[12:2],,8h[12:2],,4,,6<8[8:1]/3>1[8:1],,,63,,,7-4[8:1]/2-5[8:1],,,7-1[8:1]/2,,,2-6[8:1],,,
{8}2,5V38[8:2],,7,6,5,4b-6[8:1],,1b-5[8:1],,7b-3[8:1],,5b-1[8:1],,2-8[8:1],,7-3[8:1],7,,4V61[8:2],4,3,2b-6[8:1],,2b,,5b-2[8:1]/1bv6[8:1],,5b/1b,,
{16}7h[8:1],,,,5h[8:1]/7h[8:1],,,,4,6,3,,2,,2,,1h[8:1],,,,3h[8:1]/1h[8:1],,,,4,2,5,3,6,4,7,5,8,,8,,71,,71,,62,,62,,
{16}5,3,5,3,6,3,6,3,5,2,5,2,7,4,7,4,5,1,5,1,6h[8:2],,2,3,4,,7h[8:2],,3,4,5,,6V85[8:2]/5,,84,,5b-1[8:1]/6,,3,,2V48[8:3],,,,5-1[8:1],,,,5b,,,,2h[8:2],,6,5,4,,1h[8:2],,5,4,3,,2V41[8:2]/1,,83,,1b-5[8:1]/2,,7,,6V84[8:3],,,,5-1[8:1],,,,5b,,,,
52,,
6,,78,,1,,82,,3,,45,,6,,7b-1[8:1]/5b-1[8:1],,,,7b/5b,,,,2b-8[8:1]/4b-8[8:1],,,,2b/4b,,,,7b/1,,6,,8b/2,,3,,7b/1,,5,,8b/2,,4,,5b/6,,7,,4b/5,,8,,3b/4,,1,,5b/2,,5b/2,,3b,4,3,4,3,4,3,4,1b,5,1,5,1,5,1,5,2b,3,4,5,6,7,8,1,
{24}6b,2,6,2,6,2,6v3[8:1],2v5[8:1],6,2,6,2<4[24:13],6b<4[16:8],,,,,,,,,,,,,,,,,,,,,,,,
{8}8z4[8:4]/4s8[8:4],,,
,,,,,
6,5,4,3>6[1:1],,,,,,,,,,,,,5,4,3,2>8[1:1],,,,,,,,,,,,,6,5,4,3>6[1:1],,,,,,,,,,,,,7,6,5,4<2[1:1],,,,,,,,,,,,,{8}6V84[8:8]/7v4[8:8],,,,,,,,,,,,,,,,8-2[8:8]/1-5[8:8],,,,,,,,,,,,,,,,7pp5[8:8]/4v7[8:8],,,,,,,,,,,,,,,,5-1[8:8]/1-5[8:8],,,,,,,,,,,,
{16}28,,37,,46,,5pp5[8:11]*qq5[8:11],,,,,,,,,,,,
&inote_5=(184){1},
{8},,,,7,,,,,,,,6,,,,,,,,5,,,,,,,,4s8[8:4]*z8[8:4],,,,,,,,8V24[8:6],,,,
,,5,,6V82[8:6],,,,,,3,,4V68[8:6],,,,,,1,,2V46[8:6],,,,,,,,8V62[8:8],,,,,,2,,4h[8:4],,,,,,,,1V37[8:8],,,,,,7,,5h[8:4],,,,,,,,5/2,,,3h[8:3],,,4,,4qq5[8:6]/5,,,,
,,,,7h[8:3],,,6h[8:3],,,5,,4/5pp4[8:6],,,,,,,,2h[8:5],,4,,
,5,64,,7h[8:5],,5,,,4,53,,
{16}52,,,3,4,,1,,74,,,6,5,,8,,4b-8[8:2],,,,,,,,4bw8[8:1],,,,,,,,
7<4[8:1],,,5,7,,3,,2>5[8:1],1,,1,2,,8,,5p1[8:1]/7,,,,6,,,,4q8[8:1]/2,,,,3,,,,5qq1[8:4],,,,8,,7,,7,,6,,6,,5,,1-5[8:1],,,,51,,,,7-4[8:1]/5-2[8:1],,,,75,,,,1,,1h[8:2],,2,3,4,5,8,1,2,3,5,6,7,8,5b/1,4,3,2,5/1b,6,7,8,5b/1,4,3,2,5/1b,6,7,8,5b/1,,51,,84,,84,,73,,73,,62,,62,,5,3,4,2,6,4,5,3,7,2,1,3,8,4,7,5,6pp5[16:10],,,,,,,,4-2[8:1],,,,4b,,,,
{8}2qq1[16:3],,5,5h[8:2],,1,7qq8[16:6],,4,,3h[8:3],,,1,1>5[8:2],,8,,7pp8[16:3],,,5,5h[8:2],,7,65,4,
53,
{16}2h[8:1],,8,1h[16:3],,,7,8,
{8}6pp7[16:3],,4,4h[8:3],,5,5>1[8:2],,6,6h[8:3],,8,8-4[8:1],,81,2,3<6[8:1],,6,7p3[8:1],,3,2q8[8:1],,8,1-5[8:1],,1,
{16}3,,3,4,5,6,7,8,
{8}7pp8[16:3]/1,,3,3h[8:2],,8,2pp1[16:6],,5,,6h[8:3],,,8,8<4[8:2],,1,,2qq1[16:3],,,4,4h[8:2],,2,34,5,
46,
{16}7,5,7,5,8,6,8,6,1<6[8:1],,2,,4>1[8:1],,5,,64,,7,,8/1>7[8:2],,2,,3h[8:2]/1,,,,,,,,12,,3,,64,,7,,
8>3[8:1],,7,,5<8[8:1],,4,,35,,2,,1/8<2[8:2],,7,,
{24}86,,,,,,8-4[8:1],,,,,,
{8}8w4[8:1],,8,,
{16}7/4b,,6,5,6,,7b,,1,8,2,,3b,,5,,5b/2b,,3,4,2,,1b,,7,8,6,,5b,,3,,5,4,5,4,7,5,6,5,
{24}8,7,6,5,3,2,1-5[18:1],8,7pp5[8:5],6,3qq5[24:13],2,1b,,,,,,,,,,,,,,,,,,,,,,,,
{8}3h[8:1],7h[8:1],5,1-5[8:2],,5-7[8:1],3,2V48[16:5],,5,6,7V51[16:5],,1,2,3,3h[8:1],7h[8:1],1h[8:1],5-1[8:2],,1-7[8:1],3,4V26[16:5],,7,6,5V36[16:4],,3,2,1,
1,2h[8:1],4h[8:1],8-4[8:2],,4-2[8:1],6,7V51[16:5],,4,3,2V48[16:5],,8,7,6,6h[8:1],2h[8:1],8h[8:1],4-8[8:2],,8-2[8:1],6,5V73[16:5],,2,3,4V63[16:4],,6,7,8,1b-5[8:1]/5-1[8:1],,,,
{12}2,4,3,5,4,6,7b-3[8:1]/3-7[8:1],,,,,,6,5,7,4,5,3,6b-2[8:1]/2-6[8:1],,,,,,7,3,5,1,6,4,8bw4[8:1],,,,,,2,6,8,4,1,7,4bw8[8:1],,,,,,
3,7,5,1,2,8,3b-6[8:1]/7b-2[8:1],,,,,,1,8,7,63,2,1,
{12}7,7,7,5,5,5,3,3,3,1,1,1,
{16}7,8,6,1,5,2,4,3,1,2,8,3,7,4,6,5,7bV15[8:10]/4bV26[8:10],,,,,,,,,,,,,,,,,,,,,,,,,,,,,,,,5pp8[8:4]/4qq1[8:4],,,,,,,,,,,,,,,,4/3h[8:2],,5,6,7,8,3,4,5w1[8:1],,,,5,,,,
6b/1,,7,8,7,,6/1b,,3,4,3,,5b/2,,6,,7b/4,,5,6,5,,7/4b,,2,1,2,,8/3b,,7,,6b/1,,8,7,8,,6/1b,,3,4,3,,5b/2,,6,,7b/4,,6,5,6,,7/4b,,2,1,2,,8b/3,,7,,6b/1,,7,8,7,,6/1b,,3,4,2,5,3b,,6,,7b/4,,6,5,6,,7b/4,,1,2,8,3,1b,,4,,
6b,5,7,4,6,5,7,4,
{32}6b,5,4,3,2,1,8,7,6,5,4,3,2,1,8,7,6b-2[8:1]/2,,,,,,,,
{8}6b/4-8[8:1],,1b-6[8:1]/4,,1b,,
{24}2b-5[8:1]/5,1,8,7,,,
{8}2,6-2[8:1],
{16}7,5,6pp5[8:2],,5,,4,,3>8[8:1],,,,5-7[8:1]/3,,,,5/4v1[8:1],,,,64,,,,
{24}7b-4[8:1]/8,1,2,3,,,
{8}7,3-7[8:1],
{16}2,4,3V14[16:2],,4p8[8:1],,5,,6qq8[16:4],,,,6,,,,1-5[8:1],,,,21,,,,
{24}6b/4-7[8:1],3,2,1,
,,4,,,8-4[8:1],,,
{16}6,1,8qq2[16:4],,1,,2<5[16:3],,4,,3,,3,,2,,
{24}1,5,1,5,1,5,1,5,1,5,1,5,
{12}8h[300:1],2,6h[300:1],8,4h[300:1],6,4h[300:1],2,6h[300:1],4,8h[300:1],1,
{16}7b,6,5,4,2b,1,8,7,
{32}4bw8[8:1],3,2,1,8,7,6,5,4b,,,,,,,,
{24}2b-5[8:1]/1,8,7,6,,,
{8}2,6-2[8:1],
{16}7,5,6pp5[8:2],,5,,4<1[16:3],,2pp3[16:2],,,,2,,,,2-5[8:1]/1b-6[8:1],,,,2b/1,,,,
{24}7b-4[8:1]/4,8,1,2,,,
{8}7,3>8[8:1],
{16}2,4,3,,
{24}7<4[8:1],,,6,,,7b/8-4[8:1],1,2,3,,,7b/8>3[8:1],,,6,,,7/8b,6,5,4,,,25,,,16,,,
{16}7b,8,7,8,6,4,6,4,1b,2,1,2,
{16}8,7,6,5,4/1b,3,2,1,3b/8,7,6,5,4/7b,3,2,1,
{16}4b/8,7,6,5,
{8}4b/8,48,15,15,26,26,
{16}3,4,2,6,5,7,1,8,2,4,3,5,
{32}1b,2,3,4,5,6,7,8,1b/5,2,3,4,5,6,7,8,
{16}1b/5,,2,4,3,,2b/6,,3,5,4h[8:2],,
{24}3,2,1,8,37,62,
{16}1b-5[8:1]/5,,3,4,
{8}1b,6,4v1[8:1]/7b-4[8:1],,4b/7,,
{16}8b,,7,5,6,,7b/3,,6,4,5h[8:2],,
{24}6,7,8,1,62,37,
{16}8b-4[8:1]/4,,7,5,
{8}8b,3,5<8[8:1]/2b>5[8:1],,5b/2,,
{16}7,5,1,3,8,5,7,2,4,5,6,7,1,2,3,4,8b,7,6,5,4b/8,3,2,1,4/8b,7,6,5,4b/8,3,2,1,4b/8b,,7,5,6,,3b/7b,,6,4,5,,3b,,26,,1b/5b,,2,4,3,,2b/6b,,3,5,4,,{24}6b,7,8,4,3,2,
{16}8b,1,7b,2,6b,3,5b,4,6b,5,7b,5,8b,5,1b,5,
{24}2b,6,2,6,2,6,2,6,2,6,2,6,2b,15,84,73,26,15,
{32}4-8[8:1]/8,3,2,1,8,7,6,5,
{8}4b<4[16:14]*<4[16:14]/2b,,,,,,,,8z4[8:4]*s4[8:4],,
,,,,,,
{8}3-8[8:4]/8-5[8:4],,,,,,,,2-6[8:4],,,,,,,,8-2[8:4],,,,,,,,5-1[8:4],,,,,,,,7pp5[8:11],,,,,,,,7v4[8:3],,,,,,,,5-1[8:4]*-1[8:4],,,,,,,,
7h[8:4],,,,,,,,6h[8:3],5,4,3h[8:4],,4,5,6h[8:2],,5,4,3h[8:2],,4,5,6,3h[8:3],4,5,6h[8:2],,5,4,3h[8:2],,4,5,6h[8:2],,5,4,3,6h[8:3],5,4,3h[8:2],,4,5,6h[8:2],,5,4,3h[8:2],,4,5,6,3h[8:3],4,5,6h[8:2],,5,4,3h[8:2],,4,5,6,3,4,5,6pp4[8:11]/3qq5[8:11],,,,,,,,,,,
