&title=Cybernetic Vampire
&artist=void (Mournfinale)
&first=2.93
&des=arcanumĪ”
&lv_5=14
&inote_5=(110)
{4}8-6-4v7[2:3]b,{24},,,1,2,3,{16}4h[4:1],,,,,,3,2,
1h[8:1],,,2h[8:1],,,3h[8:1],,,4h[8:1],,,{24}8,1,2,3,4,5,
7/6v3-5v2[2:3]b,,,,,,,,,1,8,7,{16}6h[4:1],,,,,7,8,1,
{8}2h[16:1],1h[16:1],8h[16:1],7h[16:1],6h[16:1],5h[16:1],{24}3,4,5,6,7,8,
1<6[4:1]/2,,,,,,,,,5,4,3,2-4-6[4:1],,,,,,,,,7,8,1,2h[4:1],,,,,,{32}7,6,5,4,
1/3h[4:1],,,,,,,,8,7,6,5,{4}4h[4:1]/2<6[4:1],2,
{16}4,5,6,7,{24}1,2,3,4,5,6,
{32}8,7,6,5,4,3,2,1,{16}8-4[8:1],,,,8,1,2,3,
{24}5,6,7,8,1,2,{32}4,3,2,1,8,7,6,5,{1}4w8[2:3]b,,
{4}Ch[4:7]f/E2,E3,E4,E5,A4,A3,A2,1q5[8:1],
8/1,7<4[8:1],7/8,2q5[4:1],{8}1/2,1,8z4[4:1],7,
8/1,2,3,2,{16}5x/3x,3,6,6,4,4,7,7,
{24}8x/2x,3,4,7,6,5,1,2,3,4,5,6,{2}7bx<1[8:3]/8b-4[4:1]b,
{32},,,,B7,B6,B5,B4,B3,B2,B1,B8,B7,B6,B5,B4,
{8}2x-5[8:1],C,2,6,{16}3-8-4[4:1]b,8,,5,{8}3,7,
6-1[8:1],C,6,2,{16}5-2-6[4:1]b,4,,1,{8}5,3,
4-1[8:1],C,4,7,{16}8-3-7[4:1]b,6,,4,{8}8,6,
5-8[8:1],C,5,4,{16}1-4-8[4:1]b,3,,5,{8}1,3,
A8f/2b>5[8:1],A1/B1,6/2,7,{16}8-6>5v7[4:1]b,3,,1,{8}8/2,4,
3v8[8:1],A2/B2,7/3,6,{16}5qq1[4:1]b,4,,6,{8}7/5,8,
7<4[8:1],A6/B6,7/2,1,{16}2-6>5-3[4:1]b,5,,1,{8}8/2,7,
6v1[8:1],A7/B7,6/2,3,{16}4pp6pp8[4:1]b,6,,3,{8}4/2,1,
2b-5-3-1[2:1],1,7,8,6,7,{16}5,2,8/3,4,
{8}6b/4b-1-3[2:1]b,1,7,8,6-4-7[4:1],7,6x,C,
2bv5-3-1[2:1],1,7,8,6,7,{16}5,2,8/3,4,
{8}6b/4bv1-3[16:3]b,1,7,8,{24}6,5,7,3-6[8:1],4,2,{16}8,8,{8}3,
7b-4-6-8[2:1],8,2,1,3,2,{16}4,7,1/6,5,
{8}3b/5b-8-6[2:1]b,8,2,1,3-5-2[4:1],2,3x,C,
7bv4-6-8[2:1],8,2,1,3,2,{16}4,7,1/6,5,
{16}3b/5bxh[16:3],,B5,7h[16:3],,B8,1h[16:3],,B2,3h[16:3],,,
{32}B6,B5,B4,B3,B2,B1,B8,B7,{16}B6/Cf,,,,
2,3,4,5,6p5[1:1],4,7,3,8,2,1,3,8,4,7,5,,4,,6x,,,,,{32}E5,E4,E3,E2,E1,E8,E7,E6,
{16}Cf,,,,7,8,1,2,3p2[4:5],5,4,6,5,7,4,6,3,2,,8,,,2,1,,7,,,3x,5,6,,
7q8[4:7],,,4,,3,3,,6,2,6,2,5,1,5,1,
{24}4,5,6,1,2,3,5,6,7,2,3,4,7x,
E2,E3,E4,E5,E6,A6,A5,A4,A3,A2,A1,{16}Cf,,,
2q3[16:17],,6,4,,3,,7,8,,1,7,,2x,,,5,,,6,,
{32}E5,E4,E3,E2,E1,E8,E7,E6,
E5/D1,D2,D3,D4,D5,D6,D7,D8,
{4}D1/Cf,{32}5x,7x,4x,6x,3,5,2,4,{4}1b-5[8:1],1x/3x,
8bv2[8:1]/6bv4[8:1],8x/6x,1bh[4:1]b/3b-6[8:1]b,{32}E4,B4,B5,E6,,,,,
(220)
{32}E1,E8/E2,E7/Cf/E3,E6/E5/E4,
5xb<4[8:7]b/4xb>5[8:7],,,,{1},{8},,,8/1,8/1>4[8:1],8/1,
{4}7b-3[8:1]/1b,7x/2x>5[8:1],6x<1[8:1]/2x,6x/4x-8[8:1],
7x<4[8:1]/4x,7x/3x>8[8:1],6xw2[8:1]b/3x,,
8b/4b-1[8:1],7<4[8:1],7/3>8[8:1],6-3[8:1]/3,6/2-7[8:1],5v8[8:1]/2,{8}1,2,2,2,
{4}7b/3bv8[8:1],6-2[8:1]/3,4z8[4:1]b,,Ch[4:1],,{16}B3,B4,E4,,B7,B8,E8,,
{8}6b-1[8:1]b/2b,2,6/2,2,8-4[8:1]b/2,2,8/2,2,5v2[8:1]b/3,3,5/3,3,1/3,8h/4h,8h/4h,8h/4h,
7b/3b-6[8:1]b,7,7/3,7,7/5-1[8:1]b,7,7/5,7,6/8-3[8:1]b,6,6/8,6,
{16}5/4,3,2,1h[8:1],8,7,6,5,
{8}4b-7[8:1]b/2b,2,4/2,2,1b-5[8:1]b/3b,3,1/3,3,
6b-2[8:1]b/4b,4,6/4,4,1b/3b,8h/4h,8h/4h,8h/4h,
{24}1b/3b,8x/4x,7x/5x,6x,,,B8,,,7b/1b,6x/2x,5x/3x,4x,,,E2,,,
1b/2b,8x/3x,7x/4x,6x/5x,,,E8,,,7b/8b,6x/1x,5x/2x,4x/3x,,,,,,
{32}E1,E2/E8,Ch[16:7]`E7`E3,E4/E6,E5,,,,{4},
(110)
{4},7bp4[8:3]/2b,3h[4:1],{16},,3,2,1<6[8:1],,6,6,1,5,5,,
4/1>4[8:1],4,,5,{32}5/1,6,7,8,1,2,3,4,{8}5-8[8:1],,5,{32}1,2,3,4,
{16}5-2[8:1],,,,5,8,7,6,
5h[16:1],3h[16:1],4h[16:1],2h[16:1],3xh[16:1],1h[16:1],4h[16:1],2h[16:1],
5h[16:1],3h[16:1],6h[16:1],2h[16:1],{24}7x,6,5,1,2,3,{12}8bv5[8:1]b*v3[8:1],6b/2b,5b/3b,
{4}8b,7qq4[4:1]/4,{24}7/B2/B3,,,3,2,1,8-2-4[8:1],,,,,,{32}8/5,6,7,8,1h[4:1],,,,
B7/B6,,,,5,4,3,2,{24}C/1h[8:1],,,,,,8-4[8:1]b,8,8,8,8,8,{16}8b,,,,
{24}5,6,7,8,1,2,
{32}4,3,2,1,8,7,6,5,{16}4-8[8:1],,,,4,5,6,7,
{24}1,2,3,4,5,6,{32}8,7,6,5,4,3,2,1,{1}8w4[4:5]b,{4},,,Cf`E8/E6/E4/E2,
{8}E8/4,E7/3,E6/2,E5/1,E4/8,E3/7,E2/6,E1/5,{16}C/4,3,8/2,7,6/1,2,5/3,6,
{24}1,5,3,8,4,6,2,8,5,7,1,4,Cf,
