&title=紬の夏休み
&artist=岩井映美里
&first=0.05
&lv_5=11
&des_5=双层吉士汉堡
&inote_5=
(75){4},,E6,E4,
E2/E3,E1,E8,E7,
E5/E6,E4,E3/B4,E7/B5,
B1/E3,E8/E7,B3/B4,B6/B5,
C/B2,{8}E6,E5,{4}2xh[4:1],{8}4,5,
{4}4/6,{8}6,4,{4}7h[4:1],{8}5,4,
{4}4/5,{8}3,3,{4}2h[4:1],3h[4:1],
4h[4:1],5h[4:1],{2}6xp4[2:1],
{8},,,,4/3,5,6,6,
7,5,{4}4h[8:1]/6h[8:1],{8}5/6,4,3,3,
2,4,{16}5h[8:1]/3h[8:1],,,8xh,8xh,1xh,1xh,1xh,{8}1xh,8xh,
{16}8xh,1xh,1xh,1xh,1xh,,,8xh,8xh,1xh,1xh,8xh,{8}1xh,1xh,
{4}1xh,{8}E8/E2,E7/E3,3x/6x,4,7/5,6,
4/5,3,{4}5/2h[8:1],{8}2/5,3,4/5,6,
4/7h[4:1],B4,{16}E3,,,8xh,8xh,1xh,1xh,1xh,{8}1xh,8xh,
{16}8xh,1xh,1xh,1xh,1xh,,,8xh,8xh,1xh,1xh,8xh,{8}1xh,1xh,
{2}1xh,{8}6/4,5,5/4,3,
2/6,7,8/1,1,2/8,3,4/7,6,
5/4,3,{16}6x/2x,,,8xh,8xh,1xh,1xh,1xh,{8}1xh,8xh,
{16}8xh,1xh,1xh,1xh,1xh,,,8xh,8xh,1xh,1xh,8xh,{8}1xh,1xh,
1xh,2x/7x,6x/3x,5x/4x,3h[4:1],4,5,6,
{4}7h[8:3],{8}8x,8x,1h[4:1],8,7,6,
5/2,4,{16}5/4,,,8xh,8xh,1xh,1xh,1xh,{8}1xh,8xh,
{16}8xh,1xh,1xh,1xh,1xh,,,8xh,8xh,1xh,1xh,8xh,{8}1xh,1xh,
1xh,8x/1x,7x/2x,{16}E3,B3,{8}B4,E7,E6,B3,
B4,{16},,,,E7,E3,{2}C,
{8}E8/E2,E7/E3,E6/E4,Cf,4x/2bh[8:1],3,4/5,6,
7/8,1,8/3,4,6/5,7,8/4,3,
1/2,8/3,{16}7h[8:1]/4h[8:1],,,1xh,1xh,2xh,2xh,2xh,{8}2xh,1xh,
{16}1xh,2xh,2xh,2xh,2xh,,,1xh,1xh,2xh,2xh,1xh,{8}2xh,2xh,
2xh,8,7,6/4,5/3h[8:1],7,4/6h[8:1],2,
7/1h[8:1],8,7/2,6/3,5/4h[8:1],7,4/6h[8:1],3,
7/2h[8:1],8,{16}8h[8:1]/2h[8:1],,,7xh,7xh,8xh,8xh,8xh,{8}8xh,7xh,
{16}7xh,8xh,8xh,8xh,8xh,,,7xh,7xh,8xh,8xh,7xh,{8}8xh,8xh,
8xh,1,2/7,6/3,{48}4xh[1:3],E5,E6,E7,{4},{16},,{24},{2}E3,
B4,
B6,{4}E8,B1,
B2,B3,B5/B4,E6/B5,
{1}2x>4-8[1.2##5.2]/8x<6-2[1.2##5.2],
E
&lv_6=13
&des_6=紬文德斯
&inote_6=
(75){4},,1>5[4:1],5<1[4:1],
1>5[4:1],5<1[4:1],1>5[4:1],5<1[4:1],
{2}1>5[4:1],{4}7<4[8:1],3>8[8:1],
7<4[8:1],3qq3[4:1],{2}7qq3[2:1],
,7pp8[4:1],
3pp4[4:1],6p8[4:1],
2p4[4:1],{4}6-1[8:1],2-6[8:1],
8-5[8:1],1pp1[4:1],{2}5pp8[2:1],
{4},,1-3[8:1],1-5-3[4:1],
{2}6-8[8:1],{4}7-5[8:1],7-4-8[4:1],
{2}1-3[8:1],{4}5pp5[4:1],5q5[4:1],
1pp1[4:1],1q1[4:1],5<8[8:1],5pp2[8:3],
,,3q7[8:1],3>7[8:1],
5v4[8:1],5<8[8:1],5q3[16:3],2<7[8:1],
{2}6>3[8:1],{4}2qq2[4:1],2q2[4:1],
6qq6[4:1],6q6[4:1],1>4[8:1],1w5[4:1],
{8},,,,6-4[8:1],4pp5[16:3],,,2-8[8:1],
2-5[8:1],,,7-1[8:1],1qq8[16:3],,,{2}4-6[8:1]*-2[8:1],
{4}7q7[4:1],7pp6[8:3],
3<5[8:1],3>1[8:1],1-5[8:1],1pp7[8:3]*qq3[8:3],
,,{2}5qq7[8:3]/4>1[8:1],
8-3[8:1]*-5[8:1],1pp4[8:3]/7<4[8:1],
5-8[8:1]*-2[8:1],{4}3p5[4:1]/5<7[8:1],5qq1[2:1],
1<7[8:1],1pp4[2:1],5-7[8:1],5w1[4:1],
,,{2}7-2[2:1]/3-6[2:1],
,4-1[2:1]/5-8[2:1],
{4},,7bpp4[4:1]/4b>1[8:1],4V68[16:3],
{2}1>4[8:1],{4}2pp5[4:1]/5<8[8:1],5>1[16:3],
{2}7p1[8:1],{4}4q6[4:1],6>1[4:1],
1v4[8:1],6<3[4:1],3>6[4:1],5w1[4:1],
,,6v1[8:1]/2>5[8:1],6pp4[4:1],
{2}4>7[6:1],{4}5p1[8:1]/2>5[8:1],2pp6[4:1],
{2}6<3[16:3],{8}7-5[8:1],5v4[8:1],{4}4-2[8:1],
1qq1[4:1],1>6[4:1],6<2[4:1],2qq2[8:3],
,,{2}7qq4[2:1]/3qq8[2:1],
,1pp4[2:1]/5pp8[2:1],
{16},,,,,,,E6,E2,B2,B3,E4,{8}A4,E8,
{16}B6,E3,B3,B4,B5,,,C,E6,B2,B7,C,{8}E1,B3,
{1}2x>4-8[1.2##5.2]/8x<6-2[1.2##5.2],
E
