&title= αterlβus (2025 Remaster)
&artist=Aoi
&first=-0.03
&lv_5=14.7
&des_5=缘雪
&inote_5=
(202){4},,,{16},,,{32}6h/2bq3b[8:13],3/7,
{1}4/8,
{4},,,,5-3v2-8[8:7],
{8},,,,8,8-5[12:5],
,,,,{4}4,4,
{8}6,6,,4/5h[8:3],,,4,4/5h[8:3],
,,4,4,3,2,1,1V74[8:11]/8V62[8:11],
{1},,{6}C,
E5,{24},{8}6h[8:3],,,,2>5[4:1],
1,2,,7,7h[4:1],,,7<4[4:1],
8,7,,2,{4}2h[4:1],{8}6,7,
8,1-5[8:1],,1,6h[8:3],4,4,4,
{6}2h[6:1],3,3,6h[6:1],5,5,
3h[6:1],4,4,{24}2/5,,,3,{48},{16}4,{8}3,6/1,
{16}8,7,8,7,1,6,1,6,2,5,2,5,3,4,3,4,
{48},,,,,,{24}1b,2x,3x,{8}4x<3[8:3],{24}7b,6x,5x,{2}4/Cfh[2:1],
{6},2,3,3h[8:3]/B2/E2,,,5,
5,6,6h[8:3]/B7/E8,,,3,
3,2,2h[8:3]/B4/E4,{24},,{8}1,1,
{6}2,4,5,{24}1/6h[8:3],,,2,,,{8}3,4,
{6}7-4[8:1],4-8[8:1],3,3,{24},,{8}6,6,
{6}2-4[6:1],4-6[6:1],7,7,{24},,{8}1,1,
{6}2-5[8:1],5-1[8:1],7,7,{24},,{8}7,7h[8:1],
6h[8:1],5h[8:1],4h[8:1],3h[8:1],{32}E1,E8,E7,E6,E5,E5,E4,E3,{4}E2,
{6}8-6[8:1],{12}5,8-2[8:1],,5,{4}8,{8}3,3,
{6}1-3[8:1],{12}5,1-7[8:1],,5,{4}1,{8}4,4,
{6}8-5[8:1],{12}4,8-3[8:1],,4,{4}8,{8}6,6,
{6}3-5[8:1],{12}7,3-1[8:1],,7,{4}3,{8}6,6,
4/5,3,4/5,6,4/2,3,5/7,6,
1/3,2,6/8,7,{4}5-7b[8:1]/1-3[8:1],5/1,
{16}4b,8,4,8,3,7,3,7,2,6,2,6,1,5,1,5,
{24}1b,2,3,4,,,8b,7,6,5,,,{8}1b-5b[8:1],7-4[8:1],,,{2}3<1[4:3],
E5,
6<4[4:3],E5,
{6}5,5,7-4[6:1],8,{24},,{8}2,2,
{6}1,2,3-8[6:1],4,{24},,{8}7,7V53[8:1],
{4}3V15[3:1]*V14[3:1],{8},,,,3,3V57[8:1],
{4}7V14[4:1]*V15[4:1],{8},,,,3,3,
{4}1V72[3:1]*V38[3:1],{8},,,,6,6,
7/5,6,5,4,6,5,4,3,
2-5[8:1],2,6,7,{4}B8/B1,{8}7-4[8:1],7,
7,3,2,4/1-6[8:1],2,3,4,5,
7-4[8:1],7,3,2,{4}B4/B5,{8}8-3[8:1],8,
8,5,6/4-1[8:1],3,4,5,6,7,
8<5[8:1],8,4>1[8:1],4,6>3[8:1],6,2<7[8:1],2,
,4,{4}4,{8}5/1,3/7bh,{24},,,,,,{12}6b,
6,6,5b,5,5,4b,4,4,3b,3,3,
{24}8b,7,6,5,4,3,2,1,8,7,6,5,8b/4,1,2,3,4,5,6,7,8,1,2,3,
{1}6b-2b[8:5]/4V61[8:5],
{8}5/7,5/7,4/6,4/6,{16}1-5b[8:1],8,2,7,{24}1b,Cf,,,,,{8}6b,
6/3V17[4:1],,3/5,5h[4:1],{24},,,,,,1/5,2,3,
{8}4-6[8:1],7-3[8:1],4,7,,1,8,7,
2/6V82[4:1],2,,4,4h[4:1],{24},,,,,,1/4,8,7,
{8}6-4[8:1],4-8[8:1],6,1,,1,8,7,
{6}6/2v5[8:1],5,4,4h[4:1],{48},,,,{16}6,4,6,4,
{8}6,5/7,6/8,1/7,{4}1/7,{8}6,6,
{16}4b,5,3,6,2,7,1,8,7b,8,6,1,5,2,4,3,
{8}4,{24}2b,3,4,{8}5,{24}8b,7,6,{16}5/2b-5[0.297##0.1485],,,8b-4b[8:1],,,,1b,
,,,,{8}3V17[4:1],3/5h[8:3],3,{24},,,,,,5/1,2/6,3/7,
{8}8/4-8[8:1],8-3[8:1],4,7,,,8,7,
2/6V82[4:1],2,,4,4h[4:1],{24},,,,,,4/8,7/3,6/2,
{8}1/5-1[8:1],1-4b[8:1]*-6b[8:1],{4}5,{6}B5f/B6/B4,C,8,
{8}8/5h[8:1],8,8/4h[8:1],8,8/3h[8:1],8,8/2h[8:1],8,
2/7h[8:1],2,2/6h[8:1],2,2/5h[8:1],2,2/4h[8:1],2,
2/5b,{16}4,3,4,3,{8}2,4b/7,{16}5,6,5,6,{8}7,
{16}1bx/8bx,8bx/1bx,{8}8b/1b>8[4:1]*>8[4:1],,,,,,,{1}E4f/B3/B4/Cfh[1:2]/8b<1b[4:7],
{8},,,,,,,,B6/B7/B3/B2,
{16},,,,,,,,,,,,7/8,1/6,
5h[8:1]/2h[8:1],,,3h[8:1]/6h[8:1],,,{8}8h[8:1]/7h[8:1],{16},2h[8:1]/1h[8:1],,,{8}4-8[8:1]/7-5[8:1],3/8,
{6}7b/4b,{12}2,3,,3,{4}4,{16}5,4,5,4,
{8}5h[8:1],6h[8:1],7h[8:1],8h[8:1],{4}1,{8}8,8,
{16}1b,3,2,4,3,5,4,5,8b,6,7,5,6,4,{8}5,
{24}7b,6,5,4,,,1b,2,3,4,{48},,,,{16}1b/8b,,,5b/3b,,,{8}6b/4b-8b[8:1],
8V24[4:1],4,,5,5h[2:1],{24},,,,,,3,2,1,
8-5[8:1],7,6,5-2[8:1],,,{8}4,4,,4/8,3/7,2/6,
5/1-5[8:1],1/5-3[8:1],,7,{4}7h[4:1],{16}4,7,4,7,
2b,1,2,1,{24}2x,E3,B3,B4,{12}E5,{16}7b,8,7,8,{24}7x,E7,B6,B5,{12}E5,
{16}2b,5,2,6,2<5[8:1],7,2,8,{2}Cf,
{16}7b,4,7,3,7>4b[8:1],2,7,1,{2}Cf,
{16}2,1,2,1,{24}2b,3,4,8,7,6,{16}2,1,2,1,{24}2b,3,4,8,7,6,
1b,2,3,4,,,2b,3,4,5,,,4bx,5xh,6xh,7xh,8xh,1xh,2xh,3xh,4xh,7bx/5bx,,,{1}1bpp5b[1:1]/6bpp5[1:1],
{4},,,,5<1[4:3],
{8},,,,4<8[4:3],4,
,,,,,,,,{1}8V24v1[4:13]/4V68v5[4:13],
,,{4},,{8},6,
7,8,
{1}2h[4:3]/B2,
3h[4:3]/B3,
{4}4h[2:1]/B4,{8},,,,8/1s5b[3.8614##0.0743],7h[8:3]/2h[8:5],
,,,,8,8,1,1,
{16}7,7,7,7,7,7,7,7,8,8,8,8,8,8,8,8,
8,2xh,2xh,2xh,2xh,2xh,2xh,2xh,2xh,3xh,3xh,3xh,3xh,3xh,3xh,3xh,
{1}1>1[4:11],
,,{16},,{24}6h,
5h,4h,{4}3h,
E
&lv_7=1
&des_7=
&inote_7=
(202)
E
