&title=Labyrinth of tears
&artist=GhostFinal
&first=0.01
&des=老吴
&des_5=老吴
&lv_5=14
&inote_5=(150){4},{1},{4},,{8},{16}2x,
3x,
{1}4x>5[4:13],
{2}E1,B7,
{1}B4,
{2},C,
{1}5<4[1:3],
{2}B5,B2,
{4}E8,,,C,
,,{2}Ch[4:1],
{16}5/3,,,6,{8}4,5,{4}6h[8:1]/4h[8:1],E7,
{16}4,,,5,{8}3,4,{2}5h[4:1]/3h[4:1],
{4}2>5[16:3],6h[8:1],7>2[16:3],3h[8:1],
4<7[16:3],8h[8:1],{2}1-5[8:1],
{16}4/6,,,3,{8}5,4,{4}3h[8:1]/5h[8:1],E2,
{16}5,,,4,{8}6,5,{2}4h[4:1]/7h[4:1],
{16}7<4[16:3],,,4x,,,{8}3x,{16}2<7[16:3],,,7x,,,{8}6x,
{16}5>2[16:3],,,2x,,,{8}1h[4:1],,8b-4[8:1],,8b/3b,
2bx,2,2,2,7,7,7/1x,7,
7/5x,5,5,5,6,{16}6,4,5,3x,{8}3,
4x,4,{16}5,4x,{8}5,6,4/6x,6,6x/4,
4x/6,3,3,3,8,7x/1x,{4}7xh[8:1]/1xh[16:1],
{16}4,5,4,6,4,7,4,7,3,6,3,7,3,8,3,8,
2,7,2,8,2,1,2,1,3,8,4,7,5-7>1-3<4-6[4:3],6,4x,3x,
{1}2xh[1:1],
{16}8,,,4,5,3,{8}6,{16}E2,E6,E4,E8,{4}Ch[4:1],
,5/3,{16}4,6,{8}6,4,5,
3/4,2,4/3,5,6/4,3,{16}5x,6x,7x,8x,
{4}C,5/6,{16}6,4,{8}4,5/6,7,
{16}6,2,{8}2,{16}6,4,4,6,{8}6,5/7,{16}4x,3x,2x,1x,
{4}5x<8[8:1],2h[4:1],{16}1-6[8:1],3,{8}3,{4}1,
{16}2-5[8:1],5,,5,2,6,{8}6,{4}4>1[8:1],{16}8x,7x,6x,5x,
{8}8x/4xh[8:1],{24}1x,2x,3x,{8}4x/6x,8x,2/7-3[8:1],6,7/1>4[8:1],8,
{24}5x/1x,6x,7x,8x,1x,2x,3x,4x,5x,6x/1x,8x,7x,6x-2[8:1],5x,4x,3x,2x,1x,{4}6x/8xh[2:1],
{8},,4x-7[8:1],1x,4/2x,3,6/4,5,
4/3,{16}2,1,{8}3h[8:1],8,7-4[8:1],6,1/7x,2x,
3/5,{16}6,5,{8}7h[8:1],8,6/1,{16}2,4,{8}3h[8:1],5,
6-1[8:1],7x,4/6x,2,{16}8-4[8:1],1,,1,{4}8,
{8}3-8[8:1],{16}5x,5,{8}3,6,1-4[8:1],{16}8,8,{8}1,7,
6/3,8/1,{32}2b,3x,{16}4x,{32},,7b,6x,{8}5x,{32}1b,2x,{16}3x,{32},,8b,7x,{8}6x,
{24}4bx,3x,2x,1x,8x,7x,6x,5x,4x,8bx/3x,7x,6x,5x,4x,3x,2x,1x,8x,4x,3x,2x,6x,7x,8x,
{8}1xh[16:1]/2xh[16:1],2xh[16:1]/1xh[16:1],{16}3,8,4,7,5,6,{32}4x,5x,4x,5x,{8}3x,8bx,
{16}1-4[8:1],,,8,{8}1,7,{16}6/5>2[8:1],,,7,{8}5,8,
{16}1<6[8:1],,,2,{8}1,3,{16}1>4[8:1],,,7,{8}1,8,
{16}8x,7x,{8}6xh[16:1],{16}E4/B4,E3,E2,E1,7x,6x,{8}5xh[16:1],{16}E3/B3,E2,E1,E8,
A5/B5,A6,A7,A8,1x,2x,{8}3xh[16:1],{16}A6/B6,A7,A8,A1,2x,3x,{8}4xh[16:1],
{16}8-5[8:1],,,1,{8}8,2,{16}3/4<7[8:1],,,2,{8}4,1,
{16}8>3[8:1],,,7,{8}8,6,{16}8<5[8:1],,,2,{8}8,1,
{16}1x,2x,{8}3xh[16:1],{16}E6/B5,E7,E8,E1,2x,3x,{8}4xh[16:1],{16}E7/B6,E8,E1,E2,
A4/B4,A3,A2,A1,8x,7x,6x,5x,4xv6[8:1],4x-2[16:1],{8}4x,{16},,,,1x-5[8:1],
,,8,{8}1-3[8:1],7,1/6-1[8:1],5,6/4,2,
{16}3-1[8:1],,,8,{8}3,7,{16}7-3-5[16:3],,,8,{8}7,1,
{16}1x,2x,{8}3xh[16:1],{16}E6/D6,D7,D8,D1,2x,3x,{8}4xh[16:1],{16}D7/E7,D8,D1,D2,
3x,4x,{8}5xh[16:1],{16}8x,7x,6x,3x/5x-7[16:1],,,{8}2b-4[16:1],{16},2b,,8b,
8x-4[8:1],,,3,{8}8-6[8:1],2,8/1-4[8:1],2,1/5,7,
{16}6-8[8:1],,,3,{8}6,2,{16}2-6-4[16:3],,,1,{8}2,8,
{16}7,3,7,2,7,1,7,1,6x,2,6,1,6,8,{8}7xh[8:1],
{16}1,1,8,8,2,2,7,7,{32}1,2,3,4,5,6,7,8,1,2,3,4,5,6,7,8,
{4}1b,B7,{8},4x,{4}B3,
5x,B7,{8},4x,B3,5x,
{4}6x,B7,{8},4x,{4}B3,
5x,{8}B7,4x,,4x,{4}B3,
7x,B6,{8},1x,{4}B2,
8x,B6,{8},1x,B2,8x,
{4}7x,{16}B6,,,1x,,,{8}1x,B2,8x,
{4}7x,{8}B6,1xs5[4:1],{2}1x,
{4}3h[8:1],4h[8:1]/5h[8:1],6h[8:1]/5h[8:1],5h[8:1]/4h[8:1],
2h[8:1]/4h[8:1],1h[8:1]/3h[8:1],8h[8:1],7h[8:1]/1h[8:1],
6h[8:1],5h[8:1]/4h[8:1],3h[8:1]/4h[8:1],4h[8:1]/5h[8:1],
7h[8:1]/5h[8:1],8h[8:1]/6h[8:1],1h[8:1],{16}E8,E7,{8}E6,
{16}3,5x,3,5x,2,6,2,6,1,7,1,7,{24}2,3,4,6x,{48},{16}6x,
5,5,7,7,4,4,8,8,3,3,1,1,2x,2x,2x,2xs6-4s8[16:13],
{1},{4},{16}E8/E2,
,,E3,E7,Ch[16:3],{32},,,,,,,,,,,,1b/5b,
2,3,4,5,6,7,8,{4}1w5[8:1],1b,{16}3/7-3[8:1],7/3,{8}7/3,
{12}2,1,8,4,5,{24}6,4,{16}3h[8:1]/7h[8:1],,,8h[8:1]/2h[8:1],,,{8}1,
{32}2b/8,3x,,,,,3b/7,4x,,,,,{16}6,5,7,{32}3b,2x,,,{16}7,{32}3b,4x,,,6b,5x,,,{16}4h[8:1],
,,3h[8:1]/5h[8:1],,,2V46[16:3],6,1,7,,,{8}8h[64:1],8h[64:1],
{24}5/8pp3[4:1],4/7,3/6,2/5h[4:1],,,{4}8,{16}6,7,8/2,1h[64:1],,1h[64:1],,1h[64:1],
{24}7x,6,5,3x,{48},{16}3x,{12}4h[12:1],2h[12:1],8h[12:1],{8}1h[16:1],{16}7,2h[16:1],,8,1,7,
{24}2,3,4,5,6,7,8,1,2,3,4,5,{16}6x/7x-3[8:1],7x/6x,,,1x,1x,{8}1x,
{16}2h[8:1]/4h[8:1],,,5h[8:1]/7h[8:1],,,{8}3/6,{16}2z6[8:1],8,2,8,{32},,,,,,,,8b/4b,
7,6,5,4,3,2,1,{4}8w4[8:1],8b,{16}6/2-6[8:1],2/6,{8}2/6,
{12}7,8,1,5,4,{24}3,5,{16}6h[8:1]/2h[8:1],,,1h[8:1]/7h[8:1],,,{8}8,
{32}7b/1,6x,,,,,6b/2,5x,,,,,{16}3,4,2,{32}6b,7x,,,{16}2,{32}6b,5x,,,3b,4x,,,{16}5h[8:1],
,,6h[8:1]/4h[8:1],,,7,3,8,1,6,3,{4}2b/4b-8[8:1],
4/5<8[8:1],{24}5/1b-5[8:1],2,{6}3,{24}1/7-4[8:1],,,6,,,3b/7b,2,{6}1,
{8}2-5[12:1],{16}8,8,{8}2-6[8:1],{16}7,7,{8}2V48[4:1],{16}1,1,{4}2,
{32}7-1[12:1],6,{16}5,2,2,{8}7,4,{32}7-3-5[16:3],6,{16}5,2,2,{8}7,8,
{16}1,6,4,5,8,2,4,5,1,7,3,5,{32}1,2,3,4>1v8<5b[1:3],8,7,6,5v7-1<8-2v4[16:45],
{1}Cf,
E
