&title=Illusionary Night
&artist=ELECTR
&first=0
&des=计算机核心
&clock_count=4
&lv_5=14+
&inote_5=(120)
{4},,,,
{16}3h[16:1],,4,3h[16:1],,5,3h[16:1],,
6h[16:1],,5,6h[16:1],,4,6h[16:1],,
{16}2h[16:1],,4,2h[16:1],,5,3h[16:1],,
7h[16:1],,5,7h[16:1],,4,6h[16:1],,
{16}8>3[16:1],8,,5,6-4[16:1],7,,2,
1-7[16:1],,3-1[16:1],,1,,3,,
{16}8<5[16:1],8,,3,2-4[16:1],1,,6,
7-5[16:1],,3-1[16:1],,7,,3,,
{16}4<7[16:1],4,,1,2-8[16:1],3,,6,
5-3[16:1],,7-5[16:1],,5,,7,,
{16}4>1[16:1],4,,7,6-8[16:1],5,,3,
4,4,3h[16:1],,{32}6,5,6h[64:1],,3,4,3h[64:1],,
{16}7b/8b,6,3h[64:1]/5h[64:1],{32}2-6[16:1],4,2,4,{16}2h[64:1],8,2,
,8,5h[64:1]/7h[64:1],4,4,{32}8h[64:1],7,2h[64:1],3,6h[64:1],5,
{16}2,2,3h[64:1]/5h[64:1],{32}6-2[16:1],4,{16}5,3h[64:1],{32}5,4,{16}6,
,3,{64}1,8,7,6,{16}4h[64:1],4,6,{32}4h[64:1],5,4,5h[64:1],
{16}3,3,6h[64:1]/4h[64:1],{32}7-3[16:1],5,7,5,{16}7h[64:1],1,7,
,1,4h[64:1]/2h[64:1],5,5,{32}1h[64:1],2,7h[64:1],6,3h[64:1],4,
{16}7,7,6h[64:1]/4h[64:1],{32}3-7[16:1],5,{16}4,6h[64:1],{32}4,5,{16}3,
,6,{64}8,1,2,3,{16}5h[64:1],5,3,{32}5h[64:1],4,5,4h[64:1],
{16}6<8[16:1],6,,4<6[16:1],4,,2>4[16:1],2,
,8,8,,{32}6,6,4,4,5,5,2,,
{16}8b,,1,1-5[12:1],7,,3,1,
,2h[16:1],,,{64}2,3,4,,8,7,6,5,
{16}1,,8,8-4[12:1],2,,7,8,
,6h[16:1],,,{64}7,6,5,,1,2,3,4,
{16}8,,2,2-6[12:1],8,,5,2,
,7h[16:1],,,{64}1,2,3,4,{16}6v8[12:1],
{16}6,,3,3,,2,3,4,
{64}8,1,2,3,4h[1:0],,,,2h[1:0],3,4,5,6,,,,8,7,6,5,4,,,,
{16}1h[8:1],,8,8-4[12:1],2,,6,8,
,7h[16:1],,,{64}7,6,5,4,1,2,3,4,
{16}8h[8:1],,1,1-5[12:1],7,,2,1,
,3h[16:1],,,{64}2,3,4,5,8,7,6,5,
{16}1h[8:1],,7,7-3[12:1],1,,4,7,
,2h[16:1],,,{64}8,7,6,5,{16}2pp3[8:1],
{16}2,,6,6,,7,6,5h[8:1],
,,2,1,{64}1,2,3,4,7,6,5,,2h[1:0],3,4,,8,7,6,5,
{16}1b,2,35,{32}2,4,2,4,{16}2,{32}6,5,6,5,
{16},4v7[16:1],2-5[16:1],{32}5,3,{16}5,4,2,8,
{16}2,1,38,{32}2,1,{16}2,8h[64:1],{32}1,8,{16}1,
7h[64:1],{32}8,7,{16}8-5[16:1],1v4[16:1],7,2,8,1,
{16}8,7,64,{32}7,5,7,5,{16}7,{32}3,4,3,4,
{16},5v2[16:1],7-4[16:1],{32}4,6,{16}4,5,7,1,
{16}7,8,16,{32}7,8,{16}7,1h[64:1],{32}8,1,{16}8,
2h[64:1],{32}1,2,8,3,8,3,7,4,7,4,{16}6,6h[16:1],
{24}2,4,5,
{16}7b,,3,,
{16}8b/4,,8,8,85,,7,7,
4v5[12:1],8,8v1[12:1],,7,7,,,
{16}2,,1,1,14,,2,2,
8-6[64:3],8-5[16:1],1-3[64:3],1-4[16:1],,,,,
{16}6,,5,5,51,,4,4,
3v5[12:1],5,5v4[12:1],,6,6,7,8,
{16}8,,1,14,,8,8,85,
4-1[64:3],2-4[16:1],8-5[64:3],6-8[16:1],,,,,
{16}2,,1,1,14,,2,2,
5v4[12:1],1,1v8[12:1],,2,2,,,
{16}7,,8,8,85,,7,7,
1-3[64:3],1-4[16:1],8-6[64:3],8-5[16:1],,,,,
{16}3,,4,4,48,,5,5,
6v4[12:1],4,4v5[12:1],,3,3,2,1,
{16}1,,8,85,,1,1,14,
5-8[64:3],7-5[16:1],1-4[64:3],3-1[16:1],,,,,
{16}7h[16:3],,,6h[16:3],,,5,,
4h[16:3],,,3h[16:3],,,2,,
{16}1h[16:6],,,8h[16:4],,,,,
7,{32}7,5,{16}6,6,3,3,5h[16:1],,
{64}25,3h[64:3]/4h[64:3],,,{16},,{64}16,25,3h[64:2]/4h[64:2],,{16},,{64}87,16,25,3h[64:1]/4h[64:1],{16},
,,{64}1,2,3w7[32:3],,{16},5,5,,3b,
{16},,
{32},,6-8[16:1],5,7,,1,,35,,2h[16:1]/6,,
{16},{32}2,1,{16}3,{32}3-5[16:1],4,2,4,3,4,2,,{16}3/7h[16:1],
{16},{32}8,7,1h[64:1],,7-5[16:1],8,5h[64:1],,3-7[16:1],,2,,1-3[16:1]/7,,
{16},37,,15,6-2[16:1],4,{32}7,5,7,5,
{16}6,,3,{32}3-1[16:1],4,2,4,{16}3,25,3/6h[16:1],
,{32}6,8,7,,{16}7-5[16:1],{32}8,7,{16}1,28,7/3h[16:1],
{16},{32}3,4,3,4,3,,7,8,7,8,7,,1,,
{16}8-6[16:1],8-2[16:1],8-5[16:1],8-3[16:1],8-4[16:1],8,8,8,
{16}8b,,
{32},,3-1[16:1],4,2,,8,,64,,7h[16:1]/3,,
{16},{32}7,8,{16}6,{32}6-4[16:1],5,7,5,6,5,7,,{16}6/2h[16:1],
{16},{32}1,2,8h[64:1],,2-4[16:1],1,4h[64:1],,6-2[16:1],,7,,8-6[16:1]/2,,
{16},62,,84,3>8[16:1],5,{32}2,4,2,4,
{16}3,,{32}6,4,6<1[16:1],4,6,,37,,{16}4,6,
,4,{32}3,5,3>8[16:1],5,3,,62,,{16}5,3,
{16}6h[32:1],7,3h[32:1],2,7h[32:1],8,2h[32:1],1,
1-3[16:1],1-4[16:1],1-5[16:1],1-6[16:1],,,,,
{16}3,3,24,{32}1,5,1-3[16:1],5,{16}1,1-7[16:1],4,
1,6,1,4,{64}1,2,3,,{16}6,{64}1,8,7,,{16}4,
{16}6,6,75,{32}8,4,8-6[16:1],4,{16}8,8-2[16:1],5,
8,3,8,5,{64}8,7,6,,{16}3,{64}8,1,2,,{16}5,
{16}3,4,35,{32}3,5,2-4[16:1],6,{16}3,2-8[16:1],5,
2,7,2,5,{64}2,3,4,,{16}7,{64}2,1,8,,{16}5,
{16}6,5,64,{32}6,4,7-5[16:1],3,{16}6,7-1[16:1],4,
7,2,7,4,{64}7,6,5,,{16}2,{64}7,8,1,,{16}4,
{16}3V15[16:10],,,,,,,,
,,,,,,,,
{16}6,4,5,3,6,4,7,3,
,1,7,2,8-4[16:1],3,7,4,
{16}8b,,,,,,,,
,,,,,,,,
{16},,,,,,,,
,,,,,,,,
