&title=quiz
&artist=sasakure.UK
&first=0
&des_5=Questions
&lv_5=13+
&des=Questions
&inote_5=(170)
||s4/4
{4},,,,{2}3xh[4:1],3xh[4:1],
{8}4xh[4:1],,,E8,4xh[4:1]/A7,B7,E7,B6,3xh[4:1]/E6,,,B8,3xh[4:1]/B7,C,,B5,4xh[4:1],E7,,,{2}4xh[4:1],
6xh[4:1],6xh[4:1],
{8}5xh[4:1],,,E2,5xh[4:1]/A2,B2,E3,B3,6xh[4:1]/E4,,,B1,6xh[4:1]/B2,C,,B4,5xh[4:1],E3,,,{2}5xh[4:1],
{4}4h[8:1]/6b-8[12:1],4h[8:1],4h[8:1]/8-6[12:1],4h[8:1],
3h[8:1]/5-7[12:1],3h[8:1],3h[8:1]/7-5[12:1],3h[8:1],
5h[8:1]/3-1[12:1],5h[8:1],5h[8:1]/1-3[12:1],5h[8:1],
6h[8:1]/4-2[12:1],6h[8:1],6h[8:1]/2-4[12:1],6h[8:1],
3h[8:1]/6<8[12:1],3h[8:1],3h[8:1]/8<6[12:1],3h[8:1],
2h[8:1]/5<7[12:1],2h[8:1],2h[8:1]/7<5[12:1],2h[8:1],
6h[8:1]/3>1[12:1],6h[8:1],6h[8:1]/1>3[12:1],6h[8:1],
7h[8:1]/4>2[12:1],7h[8:1],7h[8:1]/2>4[12:1],7h[8:1],
{8}6/5,6h[4:1]/5h[8:1],,,,,,5/4,,,,,,,,,
3`4,3h[4:1]`4h[8:1],,,,,,5`4,,,,,,,,,
7,8,1/7h[8:1],,2,1,8/2h[8:1],,7,8,1/6h[8:1],,2,1,8/3h[8:1],,
7-4[8:1],8,7/1,,2-5[8:1],1,2/8z4[4:1],8,,,,,,,,,
7<4[8:1],7,8,1,2>5[8:1],2,1,8,7<4[8:1],7,8,1>6b[4:1],,6,7,,
8-5[8:1],8,4,3,2-5[8:1],2,5,6,7>5[2:1],7,4,3h[8:3],,,,,
2>5[8:1],2,1,8,7<4[8:1],7,8,1,2>5[8:1],2,1,8<3b[4:1],,3,2,,
1-4[8:1],1,5,6,7-4[8:1],7,4,3,2<4[2:1],2,5,6h[8:3],,,,,
||s5/4
{8}7h[4:1],,,7h[4:1],,,4,,3,,2h[4:1],,,2h[4:1],,,5,,6,,
7h[4:1],,,6h[4:1],,,4,,3,,2h[4:1],,,3h[4:1],,,5,,6,
7,7h[4:1],5,5,5/6h[4:1],,4,5,3,4,
2,2h[4:1],4,4,4/3h[4:1],,5,4,6,5,
6,6h[4:1],4,3h[4:1],5,7h[4:1],5,2h[4:1],4,8h[4:1],1,
||s4/4
{16}E2,E3,E4,E6,E7,E8,B2,B3,B4,B6,B7,B8,E5,E4,E3,E2,
E8,E7,E6,E4,E3,E2,B7,B6,B5,B3,B2,B1,E5,E6,E7,E8,
1x,2,3,5,6,7,2x,3,4,6,7,8,5x,4,3,2,
8x,7,6,4,3,2,7x,6,5,3,2,1,
{8}8x-3[8:1],6,8b,7V51b[4:1],4,7,,3,2-6b[8:1],8-4b[8:1],2,8,,
5>1[4:1],,1v4[16:3],8,7V58[4:1],,7,
3-6-4[4:1],,3,8V26[4:1],,8,5-1-3[4:1],,5,6h[2:1],,,,
2,2x-4[12:1],2x,1x-5[12:1],1x,4x-8[12:1],4x,5x-7[12:1],5x,,
8,1/6,2,3/7,6,5/4,3,
2/7p3[8:1],,2/7,1q5[8:1],,1/5x,6xp3b[8:5],6x,,,,,,,,
3,3<6b[8:1],6-3b[8:1],3b,7,,8,8qq8b[4:1],1pp1b[4:1],8,1,,
8x<4[4:1],,4v7[16:3],3,2V83[4:1],,2,6-1-7[4:1],,6,
2V48[4:1],,2,7-3-5[4:1],,7,2qq4b[4:1],,,,
6,6x-8[12:1],6x,5x-1[12:1],5x,8x-4[12:1],8x,1x-3[12:1],1x,,
4,5/2,6,7/3,2,1/8,7,
6/3p7[8:1],,6/3,5q1[8:1],,5/1x,2xq3b[8:5],2x,,,,,,,,
5,5-1b[8:1],1-5b[8:1],5b,2,,2,1-3<4b[8:1],7-5>4b[8:1],1,7,,
2V46[4:1],,6v4[16:3],7,8V25[4:1],,8/3x,3-7-4[4:1],,3/6x,
6-2-8[4:1],,6/5x,5-1-4[4:1],,5/6x,6h[8:3],,,,
2,2x>4[12:1],2x,1xp5[12:1],1x,4xp8[12:1],4x,5x<7[12:1],5x,,
1,2/8,4,5/6,8,7/1,5,
4/3-7[8:1],,3/5,6v1[8:1],,6/2x,3xq6b[8:5],3x,,,,,,,,
4,4-8b[8:1],8-4b[8:1],4b,7,,7,8-6>5b[8:1],2-4<5b[8:1],8,2,,
6V82[4:1],6,2v8[16:3],3,4V61[4:1],,4/7x,7-3-8[4:1],,7/2x,
2-6-4[4:1],,2/1x,1-5-8[4:1],,1/2x,2qq4b[4:1],,,,
6,6x<8[12:1],6x,5xp1[12:1],5x,8xp4[12:1],8x,1x>3[12:1],1x,,
5,6/4,8,1/2,4,3/5,1,
8/7-3[8:1],,7/1,2v5[8:1],,2/6,7,8,
{16}8bx/Cf,7x,6x,5x,4x,3x,2x,1x,4x/8x,5x,6x,7x,8x,1x,2x,3x,
{4}4b/6h[8:1],5/6h[8:1],4/6h[8:1],5/6h[8:1],4/7h[8:1],
{8}5/7h[8:1],2,3/7h[8:1],3,4/7h[8:1],4,{4}6b/5h[8:1],
{8}7/5h[8:1],7,6/5h[8:1],6,7/5h[8:1],7,8/4h[8:1],8,
{4}7b/4h[8:1],{8}6/4h[8:1],6,{4}5/4h[8:1],5b/3h[8:1],
4/3h[8:1],5/3h[8:1],4/3h[8:1],5/2h[8:1],
{8}4/2h[8:1],7,6/2h[8:1],6,5/2h[8:1],5,{4}3b/4h[8:1],
{8}2/4h[8:1],2,3/4h[8:1],3,2/4h[8:1],2,
{16}1bx,2x,3x,4x,5x,6x,7x,8x,1x/5x,4x,3x,2x,1x,8x,7x,6x,
{4}5b/2xqq4[2:1],5,5,{8}5,4xh[8:1],{4}5,5,5,5,
5/2qq1-4b[2:1],5,5,{8}5,4xh[8:1],{4}5,5,5,5,
5/2qq4[2:1],5,5,{8}5,4xh[8:1],{4}5,5,5,5,
5/3-7<6-2>3b[2:1],5,5,{8}5,4xh[8:1],{4}5,5,5,5,
3>3[2:3]*v5[8:9],,,,,,,,
8qq8[2:3],,,,,,,,
3V15[2:3],,,{8},3v5[8:5],{4},,,,
6pp4b[1:3],,,{8},3qq5b[8:17],
E
