&title=スピカ
&artist=ロクデナシ
&first=-0.03
&des=夢物語&woub
&lv_5=13
&inote_4=(138.01){1}
&inote_5=(138.01){1}
{4},1,,2,,3,,4,,8/1h[4:6],,7,,6,,5-1[16:1],{32}B5,C,B1,,
{16},,2h[4:1],,,3h[16:3],,,4h[8:7],,5,,6,,7>3[4:1],,,,7,E8,E1,E2,E3,,4,,6,,8,,8,,
{16},,7h[4:1],,,6h[16:3],,,5h[8:7],,4,,3,,2<6[4:1],,,,2,E2,E1,E8,E7,,1,,2,,3
,,36,,
{16},,2h[4:1],,3x,3h[16:3],,,4h[8:7],,5,,6,,7,,,,7x,8x,1x,2x,3x,,4,,6,,2,,2,,
{16},,7h[4:1],,6x,6h[16:3],,,5h[8:3],,4,,3,,2,,1,8,1-4[8:1],,8,,8-5[8:1]/1b,,,,8b,,B2/B1,,B3/B4,,,,
{4}3>6[4:2],,6,5,4>7[4:2],,B2/B3,B1/B8,
{4}6<3[4:2],,3,4,5-1-7-3[4:2],,B7/B6,B8/B1,
{8}3h[4:3]/4,5,5,6,7-4[16:1],,,,6h[4:2]/5,4,4,3,2-5[8:1],,6-1[8:1],,6>1[4:2],,,,,,,,18,2,3,2,5/3-8[8:1],64,{32}3,B2,B1,E1,
{8},5,6,7,8,1-5[8:1],2-4[8:1],1,2,,6h[8:5],7,8,1-5[8:1],2,1,
{8},4,3,2,1,8-4[8:1],7-5[8:1],8,7,,3h[4:2],2,1,8-4[8:1],7,81,2,
{8},8,17,26,6v1[8:1],2v5[8:1],6,2,,1,82,73,3v8[8:1],7v4[8:1],3,7,1-6[8:1],5-2[8:1],1-4v7b[8:6],5,,,,,6,5,4x,3xh[4:1],6,7,8hb[8:10],,
{4}7,6,7,6,5h[8:6],{24}4x,3x,2x,{8},{32}1x,2x,3x,4x,
{8},,5,54,,54,34,45,56,74,83,1-5[8:1]/2-6[8:1],,1<6[8:1]/2>5[8:1],,1b/2b,
{8},1,2,3<6[8:1]/1,,3/1-5[8:1],8,1/2-6[8:1],3,8-4[4:1]/2,7,8/4-2[8:1],2-6[8:1],6x-1[8:1],,,
{8},8,7,6>3[8:1]/8,,6/8-4[8:1],1,8/7-3[8:1],6,1-5[8:1]/7,5qq5[4:1],1,5xpp5[4:1],7,8,1,,
{8}3-7[8:1],4,3-1-5[4:1],4,5-7[16:1]/3,4,4,,
{8}7-3[8:1],5,7<4[8:1],4,7>2[8:1],3,7,,
{8}1w5[12:1],28,1b,,8w4[12:1],17,8b,,
{8}71,6,45,3,28,17,8-5[12:1]/6b,,8b/1-4[12:1],,1b/6b<7-5-8-4qq4[8:10]*<7-5-8-4qq4[8:10],,
{2},,,
{8},,1h[8:3],{16}7,7-4[8:1],{8},,1,2,37,,{16}3-7[8:1],4,3,5,3,,6,,2,,35,,53,,
{8},4h[8:3],{16}6-1[8:1],6,{8},6,4,3,26,,{16}2-6[8:1],1,2,3,2,,7,,3,,28,,82,,
{8},5h[8:3],{16}3-8[8:1],3,{8},3,5,6,73,,{16}7-3[8:1],8,7,6,7,,2,,6,,71,,17,,
{16},,1,,,,2,,,3,4,,,,3,,,,45,,,4,5,,,5,4-8[16:1],,,{4},
{16}6,5,,,6,5,,,5,4,,,,3-5[16:1],,,,3/7-4[16:1],,,,7/1-5[16:1],,,,,,,,
{16},,,8,1,,,1,2,,,2,3-5[16:1],,,,3,,,1,8,,,8,7,,,7,6-1[16:1],,,,6/4h[4:3],,,,
{16}5,,,,6,,,7,7h[16:16],,,,6,,,,5v2<8[8:3],,,,5,,,,,,
{8},,81,1,1,2,2,1-3-5[4:1],,17,7,7-3[8:1],,7/8-4[8:1],,8/1-5[8:1],
{8},,4,3,3,2,2,1h[4:1],,8-4-2[4:1],,2-6-8[4:1],,8-2-4[4:1],,,,,,
{64}1,8,{32},,,{8},,,{64}2,7,{32},,,{8},,,{64}4,5,{32},,,{8},,,{64}3h[8:3],6,{32},,,
{8},4-8[8:1],,45,,5,{16},5,6,,{8}7,81,2,3,,4,,4h[2:3],,
{4},5<7[16:1],,6<8[16:1],,7-3[8:1],7-2[8:1],7-5[8:1],7,
{8}18,,81,2,21,5,78,4,5-3[16:1],,5-7[16:1],,5-1[8:1],,5<5b[8:30],,
{8}E6,E7,E8,,E7,E8,E1,,E8,E1,E2,,E1,E2,E3,E2,E1,B7,B8,,B8,B1,B2,,B1,B2,B3,B2,B1,,
{8}2-6[8:1],2,2/8-4[8:1],8,8/3-7[8:1],3,13,,6-2[8:1],6,6/8-4[8:1],8,8/5-1[8:1],5,35,,
{4}8-4[12:1],8b,8w4[12:1],8b,{8}34,3,56,6,34,18,5b/6b,,
{8}8,7,6b>3[8:1]/8b,,6/8-4[8:1],1,8/7-3[8:1],6,1-5[8:1]/7,5<7-3>1b[8:3],1,8x,8,6x,6,
{8},1,2,3b<6[8:1]/1b,,3/1-5[8:1],8,1/2-6[8:1],3,8-4[16:1]/2,,81,2,21,65,7b/8b,,
{8}6-2[8:1],5,6b-8-4b[4:1],5,4-2b[16:1]/6b,5,5,,
{8}2-6[8:1],4,2b,5,{32}2bx,3x,4x,5x,{8}E7/E6/B6,{32}2bx,1x,8x,7x,
{8},8w4[12:1],62,8b,,1w5[12:1],73,1b,,
{8}71,64,45,35,18,27,{32}2bx,1x,8x,7x,,,,,2bx-6[8:1]/1,3x,4x,5x,,,,,{4}2b/6bx<7-5-8-4qq4b[4:5],,,,,,
{8},Chf[8:3],4-8[16:1],,4,,,,1,2,2,,{16}8x,7x/1x,6x/2x,5x/3x,4x-1[4:1],,{8}5,4,B5/B6,B7/B8,
{8},1h[8:3]/8,{16}7-4[8:1],7,{8},7,1,2,37,,{16}1x,8x/2x,7x/3x,6x/4x,5x-2[4:1],,6,,5,,B6/B7,,B8/B1,,,,
{8}8h[8:3]/1,{16}2-5[8:1],2,{8},2,8,7,62,71,{16}8x,7x,6x,5x,4x-8[16:1]/3,,3,,4,,E3/B3,,B6/E7,,,,,
