&title=隔绝≡Thanatos
&artist=ろひ
&first=0
&des=reisei
&des_4=Reishi
&des_5=Reishi
&wholebpm=200
&first_1=0
&first_2=0
&first_3=0
&first_4=0
&first_5=1.00
&amsg_first=
&tap_ofs=
&hold_ofs=
&slide_ofs=
&break_ofs=
&seek=
&wait=
&amsg_content=
&lv_1=1
&lv_2=2
&lv_3=5
&lv_4=9
&lv_5=12
&inote_1=
&inote_2=
&inote_3=
&inote_4=
&inote_5=(200){8},,,,,,{32},,,
{16}2,,3,,4h[4:1],,,,,,,,8,,,7,
{16},,6,,5,,,,,,,1,,,2,,
{16},3,,4,,,,,,,,,1,,,5,
{16},,8,,4,,,3,,,2,,1,,,,
{16}8,,,,5,,6,,7,,8<5[8:1],,,,,,
{16},,,,4,,3,,2,,1>4[8:1],,,,,,
{16},,,,3s7[6:7]/6z2[6:7],,,,,,,,,,,,
{8},,,,,,,,
{8}5,6,56,56,4,3,34,34,
{8}8,7,8,7,5,6,5,6,
{8}2,1,2,1,3,4,3,4,
{8}1,2,3,4,5,6,{12}8,7,8,
{12}7,8,7,{8}2,3,1,4,8,5,
{8}7,6,8,6,1,5,2,4,
{8}3,7,{6}1b/5,2/6b,3b/7,4/8b,
{6}1b/3,2/4b,3b/5,4/6b,5b/7,6b/8b,
{16},,,,,3,,3,,5,,4,,4-6[8:1],,,
{16},,,,,7,,7,,1,,8,,8-2[8:1],,,
{16},,,,,2-4[8:1],,4-2[8:1],,2-5[8:1],,5-1[8:1],,5,,,
{16},,,,,1,,1,,7,,5,,5>3[8:1],,,
{16},,,,,4,,4,,5,,6,,6-8[8:1],,,
{16},,,,,7-5[8:1],,5-7[8:1],,7-4[8:1],,4-8[8:1],,4,,,
{16},,,,,1,,5,,2,,6,,3,,7,
{16},4,,8,,81,,72,,1-4[8:1]/8-5[8:1],,27,,1b/8b,,,
{16},2>4[8:1],,2,,7<5[8:1],,7,,3>8[8:1],,3,,6<1[8:1],,6,
{16},2>4[8:1],,2,,1q5[8:1],,1,,8p4[8:1],,8,,7<5[8:1],,7,
{16},3,,3,,4,,4,,5,,5,,6,,6,
{16},5,,5,,4,,4,,5,,5,,{12}4,3,2,1,8,7,{16}7-5[8:1],,7,,3-5[8:1],,3,,1-5[8:1],,1,
{16},7-3[8:1],,7,,2-6[8:1],,2,,8-4[8:1],,8,,1-5[8:1],,1,
{6},,5/4b,5/3b,5/2b,5/1b,
{6}5/8b,5/7b,5/6b,5/4b,5/3b,5/2b,
{16},,,,,1-6[8:1],,1,,7v4[8:1],,7,,8h[4:1],,,
{16},,,,,5-2[8:1],,5,,3v8[8:1],,3,,4h[4:1],,,
{16},,,,,1-4[8:1],,1,,4-7[8:1],,4,,7-2[8:1],,,
{16},,,,,8-5[8:1],,8,,5-2[8:1],,5,,2-7[8:1],,,
{16},,,,,2v3[8:1],,2,,8v5[8:1],,8,,1>3[8:1],,,
{16},,,,,7v6[8:1],,7,,1v4[8:1],,1,,8<6[8:1],,,
{16},,,,,1,,2,,3,,4,,5,,6,,7,
{16},8,,2,6,4,5,3,7,4,6,2,,,,,
{16},,,5<8[2:1]/5>2[2:1],,,,,,,,,,,,,
{16},,,1v6[2:1]/1v4[2:1],,,,,,,,,,,,,
{16},,,1q3[2:1]/8p6[2:1],,,,,,,,,,,,,
{16},,,8<4[2:1]/4>8[2:1],,,,,,,,,,,,,
{16},,,1>4[2:1]/1<6[2:1],,,,,,,,,,,,,
{16},,,5v8[2:1]/5v2[2:1],,,,,,,,,,,,,
{16},,,5q7[2:1]/4p2[2:1],,,,,,,,,,,,,
{16},,,1>5[2:1]/5<1[2:1],,,,,,,,,,,,,
{16},,,4,5,4,,5,4,5,,4,5,4,5,4,
{16}5,4,,3,6,3,,6,3,6,,3,6,3,6,3,
{16}6,3,,5,,6,,7,,8,,1,,2,,3,
{16},4,,5,,6,,7,,8,,1,,2,,,
{16},,,18,,18,,,,,,,,,,,
{16},45,,45,,45,,,,,,,,,,,
{16},,,2-6[8:1],,2,,7-3[8:1],,7,,4,,,,4>5[4:1],
{16},,,4b,,,,,,,,,,
{16}1,,2,,3>4[1:1],,,,,,,,,,,,
{16},,,,4>5[1:1],,,,,,,,,,,,
{16},,,,5>6[1:1],,,,,,,,,,,,
{16},,,,6>7[1:1],,,,,,,,,,,,
{16},,,,7>6[1:1],,,,,,,,,,,,
{16},,,,6<5[1:1],,,,,,,,,,,,
{16},,,,5<4[1:1],,,,,,,,,,,,
{16},,,,4<3[1:1],,,,,,,,,,,,
{16},,,,8h[1:1],,,,,,,,,,,,
{16},,,,4<8[1:1],,,,,,,,,,,,
{16},,,,8z4[3:4]/8s4[3:4],,,,,,,,,,,,
{1},
{16},,,,4,5,4,5,4,5,4,5,4,5,4,5,
{16}4,,45,,63,,2,7,2,7,2,7,2,7,2,7,
{16},,18,,27,,,,,,,,13,,,,
{16},,,,86,,,,72,,,,63,,,,
{16}1-5[8:1]/8-4[8:1],,,,1b/8b,,,,2-5[8:1],,2,,7-4[8:1],,7,,
{16}3-7[8:1],,3,,6-2[8:1],,6,,1-5[8:1],,1,,8-4[8:1],,8,,
{16}3<5[8:1],,3,,7>1[8:1],,7,,2v5[8:1],,2,,6v1[8:1],,6,,
{16}3,,3,,7,,7,,2,,2,,6,,6,,
{12}7,6,5,4,3,2,{4}6v4[4:1]/2-4[4:1],2-8[4:1]/6v8[4:1],
{4}6v4[4:1]/2-4[4:1],2-8[4:1]/6v8[4:1],6v4[4:1]/2-4[4:1],2-8[4:1]/6v8[4:1],
{4}26,,{8}5,5,4,4,6,6,3,3,
{6}6-3[8:1],6b,2-5[8:1],2b,,,
{16}1-4[8:1],,1,,5-8[8:1],,5,,2-7[8:1],,2,,6-3[8:1],,6,,
{16}4v1[8:1],,4,,8v5[8:1],,8,,3v6[8:1],,3,,7v2[8:1],,7,,
{16}2>4[8:1],,2,,7<5[8:1],,7,,1,,1,,5,,5,,
{16}3,,3,,7,,7,,{12}2,3,4,5,6,7,
{4}3v5[4:1]/7-5[4:1],7-1[4:1]/3v1[4:1],
{4}3v5[4:1]/7-5[4:1],7-1[4:1]/3v1[4:1],3v5[4:1]/7-5[4:1],7-1[4:1]/3v1[4:1],
{4}37,,{8}3-7[8:1],3,6-2[8:1],6,
(205)
{8}1-5[8:1],1,8-4[8:1],8,{6}2-5[8:1],2b,7-4[8:1],7b,,,
{4}2-5[8:1],1-6[8:1],8-3[8:1],7-4[8:1],
{4}1-4[8:1],4>8[8:1],8-3[8:1]/8-5[8:1],8b,
{4}7-2[8:1],6-3[8:1],1-4[8:1],8-5[8:1],
{8},,,,{12}4,6,2,{24}7,1,7,1,7,1,
(210)
{4}8-5[8:1],8/1-4[8:1],1/8-4[8:1],8/1-5[8:1],
{4}1/8-6[8:1],8/1-3[8:1],18,18,
{6}3,6,4,5,2,7,
{1}1h[4:3]/8h[4:3],
(215)
{8}2>4[8:1],2,7<5[8:1],7,1-4[8:1],1,8-5[8:1],8,
{8}4-7[8:1],4,5-2[8:1],5,3v8[8:1],3,6v1[8:1],6,
{8}2,3,4,6,1,5,2,6,
{8}3,5,4,6,{16}5,6,7,8,1,2,3,4,
{8}5-1[8:1],5,4-8[8:1],4,5-7[8:1],5,4-2[8:1],4,
{8}6-2[8:1],6,3-7[8:1],3,8<6[8:1],8,1>3[8:1],1,
{6}8,7,56,4,3,21,
{6}8,7,56,5b/6b,,,
(220)
{4}7h[4:1],1-5[4:1],5-2[4:1],2-7[4:1],
{4}7-4[4:1],4-8[4:1],8>3[4:1],3<6[4:1],
{4}6<1[4:1],1>4[4:1],4<7[4:1],7>2[4:1]/7-3[4:1],
{4},,{12}1,8,1,8,1,8,
(205)
{4}1h[2:1],,,{8}2,3,
(190)
{8}4h[2:1],,,,5h[2:1],,,,
(175)
{8}6h[2:1],,,,
(160)
{8}7h[2:1],,,,
(150)
{8}8h[2:1],,,,,,,,
{1},,,,
E
