&title=ガールズ・イン・ザ・フロンティア
&artist=渋谷凛,早坂美玲,木村夏樹,小日向美穂,塩見周子
&first=0.425
&des=Ragna
&wholebpm=145
&demo_seek=68
&demo_len=13
&des_5=Ragna
&lv_5=13
&inote_5=(145)
{16}7,8,1,2,3h[2:1],,,4,,,5,,6h[2:1],,,5,,,4,,2h[2:1],,,4,,,5,,7h[2:1],,,5,,,4,,2h[2:1],,,5,,,6,,7h[2:1],,,4,,,3,,2h[8:3],,,5,,,6,3,7,,2,,1,,8,,
2V41[16:3],,,1,,,8,,7V58[16:3],,,8,,,1,,3V14[16:3],,,4,,,5,,6V85[16:3],,,5,,,4,,
2,1,3,8,4,7,5,6,3,4,2,5,1,6,8,,
16,,,34,,,38,,,56,,,1b/2b,,,,
{4}6-8[8:1],65,3-1[8:1],34,6^3[4:1],3^8[4:1],8^5[4:1],5,3-1[8:1],34,6-8[8:1],65,3^6[4:1],6^1[4:1],1^4[4:1],4,6-1[8:1],65,3-8[8:1],34,6q3[4:1],3q8[4:1],8q5[16:3],5,
{16}2,1,3,8,4,7,5,6,3,4,2,5,1,6,8,,
16,,,34,,,47,,,1-6[193.3333#8:1]/2-5[193.3333#8:1],,,1b/2b,,,,
{4}7p4[16:9],1,2,3,4qq1[16:9],5,6,7,1s5[8:4],2,3,4,
{16}3h[8:3],,,5,,,6h[8:3],,,,4,,4,,,,
{4}2V48[16:9],5,6,7,8p3[16:9],1,1,2,3pp8[16:9],5,6,7,7h[4:1],5h[4:1],4h[4:1],2h[4:1],
{16}6^4[8:1],,4,4,,3<7[16:3],3,,,,2,,1,,8,,7h[16:3],,,6h[16:3],,,5q8[32:7],,,,,,,,
3h[2:1],,4,,4,5,,,6h[2:1],,,,5,,4,,1,,1-3[193.3333#8:1],,,1-7[193.3333#8:1],,,1-4[8:1],,,,1-6[193.3333#8:1],,1b,,,,
3^5[8:1],,5,5,,6>2[16:3],6,,,,7,,8,,1,,2h[16:3],,,3h[16:3],,,4p1[32:7],,,,,,,,
6h[2:1],,5,,5,4,,,3h[2:1],,,,4,,5,,8,,8-6[193.3333#8:1],,,8-2[193.3333#8:1],,,8bqq5[16:5],,,,,,,,,,
2,,2,3,,3,4h[4:1],,,,6h[8:3],,5,,4,,3h[8:1],,6,3h[8:1],,7,3q4[32:7],,,,,,,,,,
7,,7,6,,6,5h[4:1],,,,3h[4:1],,4,,5,,78,,,34,,,5bq4[16:3]/6b<3[16:3],,,,,,,,,,
18,,,56,,,87,,4-7[8:1]/3-8[8:1],,,,3b/4b,,,,
87,,,43,,,12,,5-2[8:1]/6-1[8:1],,,,5b/6b,,,,
2h[16:3],,,3h[16:3],,,4h[8:1],,7h[16:3],,,6h[16:3],,,5h[8:1],,1q4[32:7],,,5,,,6,,8v5[8:1],,,2,,,3,,4h[8:1]/6h[8:1],,,3h[8:1]/7h[8:1],,,2h[16:1]/8h[16:1],,1w5[8:1],,,,1b,,,,
{16}6V48[16:3],,4,4,,1,1^4[8:1],,,,1/8p4[8:1],,7,,68,,,,1qq5[16:5],,2,,3V14[16:3]/1,,,,,,,,
8h[8:1],,3h[16:5],,8,7,,7,6-2[8:1],,,,
2>6[4:1]/6<2[4:1],,1,,26,,,,,,,,15,,84,,3^8[8:1]/7^4[8:1],,26,,3b/7b,,,,
5h[4:1],,2,,1,,8h[8:1],,,1h[8:1]/7h[8:1],,,2h[16:1]/6h[16:1],,3h[8:1]/5h[8:1],,,2h[8:1]/6h[8:1],,,1h[16:1]/7h[16:1],,8^3[8:1],,,,8b,,5,,5-7[193.3333#8:1],,,5-3[193.3333#8:1],,,5pp8[32:7],,,,,,1,,,,
34,,,56,,,3b>6[16:3]/4bq5[16:3],,,,,,,,,,
3V51[16:3],,5,5,,8,8^5[8:1],,,,8/1q5[8:1],,2,,31,,,,8pp4[16:5],,7,,6V85[16:3]/8,,,,,,,,
1h[8:1],,6h[16:5],,1,2,,2,3-7[8:1],,,,
7V53[4:1]/3V17[4:1],,8,,37,,,,,,,,84,,15,,6-1[8:1]/2-5[8:1],,37,,2b/6b,,,,
3h[4:1],,4,,5,,6h[8:1]/4h[8:1],,,1h[8:1]/2h[8:1],,,7h[16:1]/5h[16:1],,3h[8:1]/4h[8:1],,,8h[8:1]/2h[8:1],,,7h[16:1]/4h[16:1],,1b/8b,,,,
{4}1pp4[4:3]/8qq5[4:3],18,,,,
{16},,3-7[8:1]/7,,26,,3-8[8:1]/7,,6qq8[8:17],,,6,,,3b,,
{4}3b-1[8:1],3,3-1[8:1],3,3^1[8:1],3,3^1[8:1],3,
3pp1[8:13]/6-8[8:1],6,6-8[8:1],6,6^8[8:1],6,6^8[8:1],6,
2qq5[8:13]/4-2[8:1],4,4-2[8:1],4,4^2[8:1],4,4^2[8:1],4,
7pp4[8:5]/5-7[8:1],5,5^7[8:1],5,
{16}7b/8,7/8b,,1/2b,1b/2,,5b/6,4/7b,,3/4b,5/2b,,{1}1b-4[1:1]/8b-5[1:1],,
E
