&title=匿名M
&artist=ピノキオピー feat.初音ミク・ARuFa
&first=1.0
&lv_1=1
&lv_5=13+
&des_1=音
&des_5=匿名G
&wholebpm=140
&demo_seek=59.8
&demo_len=15
&inote_1=(140)
{4}1,8,1,8,1,8,1,8,1,8,1,8,1,8,1,8,1,8,1,8,1,8,1,8,1,8,1,8,1,8,1,8,
1,8,1,8,1,8,1,8,1,8,1,8,1,8,1,8,1,8,1,8,1,8,1,8,1,8,1,8,1,8,1,8,E
&inote_5=(140)
{16}
2h[4:1],,,,
7,,1,8,1>1[1:1],,,,18,,,,
,,,,,,,,,,5h[16:1],,,,5,,
3,4,3,,6,5,6,,47,47,,,,,,,
2h[16:1]/6h[16:1],,,,2h[16:1],6h[16:1],3h[16:1],7h[16:1],4,8,,4,,27,,,
,,,1h[8:1],,,,
{16}
2h[8:1]/8h[8:1],,,,1h[8:1]/7h[8:1],,,,3V14[4:1]/5V74[4:1],,,35,35,,,,
,,2h[16:1]/4h[16:1],,24,,35,,3V14[4:1]*pp4[4:1],,,,3,,,,
,,4h[16:1]/6h[16:1],,46,,57,,7V58[4:1],,,,4,,,,
2,,,82,82,,,,1-5[8:1]/7-3[8:1],,,,17,,,,
1b/8b,,,,1,8,1,,2,7,2,7,2V48[4:1],,8-6[8:1],,
2,,8,,,,1,7,1,,17,,2-6[8:1]/8-4[8:1],,,,
28,,,,4,5,4,,3,5,2,5,1V37[4:1],,5-7[8:1],,
1,,5,,,,1,7,1,,26,,3-7[8:1]/5-1[8:1],,,,
35,,,,18,2,3,,18,7,6,,1h[8:1],,,,
1h[16:1]/6h[16:1],,1h[16:1]/6h[16:1],,16,,78,,78,,,,8V26[4:1]/6,,,,
6V48[4:1],,,,7h[16:1],,7h[16:1],,7,,7,,7-3[8:1]/8-4[8:1],,,,
78,,,,3,4,3,,34,,56,,7-3[8:1]/8-4[8:1],,,,
7b/8b,,,,,,,,3,5,,4,6h[4:1]/4h[4:1],,,,
,,3,7,3,,7h[8:1],,1h[8:1],,8h[8:1],,1^4[8:1],,8^5[8:1],,
1pp3[8:1],,8qq6[8:1],,1,,8,,1,,,,17,,2,2,
8,,3,3,8,,4,4,8,,,,{12}48,37,26,
{16}
1-5[8:1]/5,,,7,1,,8h[16:1],,8-6[8:1],,,,8-2[8:1],,,,
8pp4[8:3],,,,8b/2,,,,,,,,1,2,3,4,
5,,8,7,6,5,4,,2,,24,,2,4,,7,
5,,3,4,,6,5,,56,,3h[8:1]/8h[8:1],,,,,,
5b/2b,,,,3h[8:1],,4,4,3h[8:1],,5,,3h[8:1],,4,4,
3h[8:1],,5,,3h[8:1],,4,4,3,4,3,5,3,,,,
35,,47,,6h[8:1],,5,5,6h[8:1],,4,,6h[8:1],,5,5,
6h[8:1],,4,,6h[8:1],,5,5,6,5,6,4,6,,,,
37,,28,,2,1,2,1,1,8,1,8,8,7,8,7,
,7b/8b,,,8,7,8,7,1,6,1,6,2,5,2,5,
,2b/5b,,,3h[8:1],,4h[8:1],,5h[8:1],,6h[8:1],,7h[8:1],,8h[8:1],,
1,,1-4[8:1]*-6[8:1],,,,1,,,,28,,1v3[8:1]*v7[8:1],,28,,
1b,,,,3h[2:1]/7h[2:1],,,,,,,,,,18,,
2,7,2,,27,,35,,3-7[8:1]/5-1[8:1],35,,35,35,,,,
2bv5[8:1]/8b-6[8:1],,,,2-4[8:1],,,,2v5[8:1]/6-8[8:1],,,,2-4[8:1],,,,
2v5[8:1]/8v5[8:1],,,,2-4[8:1],,,,2v8[8:1]/6-4[8:1],,,,26,,,,
1^4[8:1]/6^8[8:1],,,,1q5[8:1],,,,1^4[8:1]/8^5[8:1],,,,1-5[8:1],,,,
1^4[8:1]/6^8[8:1],,,,1q5[8:1],,,,18,,,,3h[8:1]/8h[8:1],,,,
1h[8:1]/6h[8:1],,,,17,,1-5[8:1],7,,7,1,,7,,5q1[8:1],7,
,7,5,,7,,1,8,2,7,3,6,4h[8:1],,,,
3-5[8:1]/7-1[8:1],,,,3-1[8:1]/7-5[8:1],,,,3-5[8:1]/7-1[8:1],,,,37,,,,
1p5[8:1]/5p1[8:1],,,,1-3[8:1]/5-7[8:1],,,,1-7[8:1]/5-3[8:1],,,,15,,,,
26,,,37,37,,,,4V25[4:1]/6V85[4:1],,,46,46,,,,
,,,,,,3,4,3,4,3,,6,5,6,5,
6,,47,,47,,3,6,2,6,1,,78,,6,,
12,,3,,18,,27,2h[16:3]/7h[16:3],,,,,27,3,4,,
72,6,5,,2,7,2,2bV48[4:1]/7V51[4:1],,,,,,,,,
,,,,18,,12,,38,,3h[16:1]/8h[16:1],,38,,8,3,
7,2,6,1,5,,8,7,8,7,,1,6,1,,16,
1V37[4:1]/6V48[4:1],,,,,,,,,,,,1v4[8:1]/7,,,,
1,,7,,,,36,,,4,5,,3h[8:1]/6h[8:1],,,,
2b/5b,,,,2h[8:1],,4,4,2,4,2,4,2h[8:1],,4,4,
2,4,2,4,2h[8:1],,4,4,3,5,3,5,4,6,4,6,
5,7,5,7,5b-1[8:1],,,,57,,,,2,8,3,7,
,4,6,4,5b-1[8:1],,,,53,,,,3,8,,2h[16:1],
7,,1,7,1,7,2,8,2,8,3,1-7[8:1],3,1,3,1,
,,2,7,2,7,2,6,2,6,2,5v8[8:1],2,5,2,5,
,,,,1b-3[8:1],,8b-6[8:1],,1b-5[8:1],,8b-4[8:1],,1b-3[8:1],,8b-6[8:1],,
1b,,8b,,1,,8,,17,,26,,5/3V14[4:1]*pp4[4:1],,,,
3b,,,,,,,,24,,3,5,,4,6,,
46,,,,{24}6,5,4,{16},,,,,,,,,,
,,,,34,34,,,,3,5,3,,4h,5h,4h,
6h,3h,6h,3h,5h,4h,5h,4h,,,,,,,27,,
,,,,{24}8^5[8:1]/2,3,4,{16},,82,,,,{24}8p4[8:1]/2,3,4,{16},,
81,,,,1b,,,,2b,,,,3b/8,,,,
7bv4[8:1]/1b-3[8:1],,,,7-5[8:1],,,,7v4[8:1]/3-1[8:1],,,,7-5[8:1],,,,
7v4[8:1]/1v4[8:1],,,,7-5[8:1],,,,7v1[8:1]/3-5[8:1],,,,37,,,,
8^5[8:1]/3^1[8:1],,,,8p4[8:1],,,,8^5[8:1]/1^4[8:1],,,,8-4[8:1],,,,
8^5[8:1]/3^1[8:1],,,,8p4[8:1],,,,18,,,,1h[8:1]/6h[8:1],,,,
3h[8:1]/8h[8:1],,,,28,,8-4[8:1],2,,2,8,,2,,4p8[8:1],2,
,2,4,,2,,8,1,7,2,6,3,5h[8:1],,,,
1^4[8:1]/5q1[8:1],,,,15,,,,1^6[8:1]/5p1[8:1],,,,15,,,,
1^4[8:1]/5v7[8:1],,,,15,,,,4-8[8:1]/6-2[8:1],,,,46,,,,
2b-5[8:1]/1b-4[8:1],,8,,2v8[8:1],,,,2-5[8:1]/6-3[8:1],,,,2v8[8:1],,,,
2v5[8:1]/7v4[8:1],,7,,2v8[8:1],,,,2v5[8:1],,,,27,,,,
7-4[8:1]/8-5[8:1],,1,,7v1[8:1],,,,7-4[8:1]/3-6[8:1],,,,7v1[8:1],,,,
7v4[8:1]/2v5[8:1],,2,,7v1[8:1],,,,7,,,,7h[8:1]/4h[8:1],,,,
2h[8:1]/5h[8:1],,,,18,18,,7,,1,2,3,4,85,7,6,
5,,2,,2,3,2,1,2v8[8:1],8,2,7,2b,,,,
8-6[8:1],1,2,3,4/8-2[8:1],,,,8-6[8:1]/4-2[8:1],,,,84,,,,
1-6[8:1]/7,,1,2,31,,,,2/8-3[8:1],,8,7,68,,,,
27,,,2h[16:1]/7h[16:1],,,,,3V14[4:1]/5V74[4:1],,,35,35,,,,
,,3h[2:1],,4,,,5,,,6h[2:1],,5,,,4,
,,3h[2:1],,6,,,7,,,8h[2:1],,3,,,2,
,,1,,18,,1,2,3V14[4:1]*pp4[4:1],,,,3b,,,,
,,,,37,,,,4V25[4:1]/6V85[4:1],,,46,46,,,,
,,6h[2:1],,4,,,2,,,1h[2:1],,6,,,7,
,,8,,8,7,6,5,48,,,,6-3[8:1]/7-2[8:1],,67,,
,,,,2,4,3,5,3,6,3,6,3V15[4:1]/6V84[4:1],,,,
3b/6b,,,,,,,,,,,,,,,,
,,,,,,4h,,,,,,,,,,
{8},,,,E
