&title=Class Memories
&artist=Antistar&Ctymax
&first=0.41
&des=D.N.T.
&lv_5=14
&inote_5=(145)
{8}2-5[8:1]/6,6,2,,2-5[8:1]/8,8-6[8:1],2,8,2-5[8:1],4,2,,2-5[8:1]/7,7-1[8:1],2,7,
{8}2-5[8:1],6,2,,2-5[8:1],1-6[8:1],2,1,2-5[8:1],7,2,,2-5[8:1],5-3[8:1],2,,
{8}7-4[8:1],3,7,,7-4[8:1]/1,1-3[8:1],7,1,7-4[8:1],5,7,,7-4[8:1]/2,2-8[8:1],7,2,
{8}7-4[8:1],3,7,,7-4[8:1],8-3[8:1],7,8,7-4[8:1],2,7,,7-4[8:1],4-6[8:1],7,,
{16}1-3[8:1],,1-5[8:1],,8,,,,2-8[8:1],,2,,7,6,5,,5-8[8:1],,5-2[8:1],,4,,,,6-1[8:1],,6,,2,3,4,,
{16}8-6[8:1],,8-4[8:1],,1,,,,7-1[8:1],,7,,2,3,4,,4-1[8:1],,4-7[8:1],,5,,,,3-8[8:1],,3,,7,6,5,,
{16}2-4[8:1],,6-8[8:1],,2,,6,,2,,3,4,2,3,1,,7-5[8:1],,3-1[8:1],,7,,3,,7,,6,5,7,6,8,,
{16}15,,15,,48,,48,,37,,37,,26,,26,,1/5,2,3,4,1>5[4:1],2>6[4:1],3<7[4:1],4<8[4:1],1b,,,,,,,,
{16}4,2,4,2,3,2,3,2,2,2,2,2,1,2,1,2,8-5[8:1],,4,4,8-3[8:1],,4,4,8,,2,2,4,3,5,4,
{16}6,5,6,5,7,5,7,5,8,5,8,5,1,5,1,5,2-4[8:1],,1,1,2-8[8:1],,7,7,2,,6,6,3,5,4,6,
{16}5,7,5,7,6,7,6,7,7,7,7,7,8,7,8,7,1-4[8:1],,5,5,1-6[8:1],,5,5,1,,7,7,5,6,4,5,
{16}3,4,3,4,2,4,2,4,1,4,1,4,8,4,8,4,7-5[8:1],,8,8,7-1[8:1],,2,2,7,,3,3,6,4,5,3,
{16}4b-8[8:1],,,,8b-4[8:1],,,,6b-2[8:1],,,,2b-6[8:1],,,,3b,,4,5,3b,,7,8,6b,,3,4,2b,,6,5,
{16}7b,,7,,68,,68,,15,,15,,24,,24,,3,3,3,3,2,4,2,4,1/5,6,7,8,1/5,2,3,4,5bw1[2:1],,,,,,,,,,,,,,,,
{16}3/4-2[8:1],,4,,1-5[8:1],,,,7<4[8:1],,8,,3,2,1,,8/7-1[8:1],,7,,2-6[8:1],,,,5<8[8:1],,4,,1,2,3,,
{16}4/1-5[8:1],,1,,2-4[8:1],,,,7p3[8:1],,8,,2,1,8,,5,,3,4,2,,6,5,4-1[8:1]/7-2[8:1],,38,,,,,,
{16}6/5-7[8:1],,5,,8-4[8:1],,,,2>5[8:1],,1,,6,7,8,,1/2-8[8:1],,2,,7-3[8:1],,,,4>1[8:1],,5,,8,7,6,,
{16}5/8-4[8:1],,8,,7-5[8:1],,,,2q6[8:1],,1,,7,8,1,,4,,6,5,7,,3,4,5-8[8:1]/2-7[8:1],,61,,,,,,
{16}1b-6[8:1]/6b,,,,1-4[8:1]/5,,5,,1/7<5[8:1],,7,,3,2,1,,4-6[8:1],,,,1/4-8[8:1],,1,,2>4[8:1],,2,,7,6,5,,
{16}2-5[8:1],,,,8/2-8[8:1],,8,,2/6-1[8:1],,6,,2,3,4,,7,,6,4,5,,2,3,2q6[8:1],,1,,2b,,,,
{16}8b-3[8:1]/3b,,,,8-5[8:1]/4,,4,,8/2>4[8:1],,2,,6,7,8,,5-3[8:1],,,,8/5-1[8:1],,8,,7<5[8:1],,7,,2,3,4,,
{16}7-4[8:1],,,,1/7-1[8:1],,1,,7/3-8[8:1],,3,,7,6,5,,2,,3,5,4,,7,6,7b-5[16:1],,,8b-4[16:1],,,1b,,
{16}2,5,3,4,2,2h[8:1],,1,3,8,4,7,5,6,1,5,2,4,3,5,4,6,5,7,2,5,3,6,4,7,5,8,
{16}2b-5[8:1],,1,1,2b-8[8:1],,7,7,2b,,4,4,2b,,6,5,7,4,6,3,5,2,4,3,8,4,7,5,6,4,5,3,
{16}7,4,5,4,7,3,5,3,7,2,5,2,7,4,5,5,1,4,3,4,1,5,3,5,1,6,3,6,1,7,3,3,
{16}8,7,6,5,2,3,2,3,1,8,7,6,8,4,8,4,7,6,5,4,7,6,5,4,8,6,4,2,5bw1[8:1],1b,7b,3b,
{16},,,,3,4,3,4,2/5,,6,4,5,5,5,5,7,,2,4,3,3,3,3,1,,7,5,6,6,6,6,
{16}8h[8:1],,4,4,7,5,6,4,1,3,7,4,6,2,5,3,7-4[8:1],,8,8,7-1[8:1],,2,2,7-5[8:1],,3-1[8:1],3,7,,3,,
{16}4w8[8:1],4,,,4,,,,2,5,3,4,2,5,3,4,1,,6,5,7,,4,5,3,6,2,7,1,8,1,8,
{16}2-6[8:1],,,,2-4[8:1]/8-4[8:1],,,1,2-6[8:1]/8-6[8:1],,,,28,,,,
{16}7-3[8:1],,,,7-5[8:1]/1-5[8:1],,,8,7/1pp5[4:1],,,,4,5,6,7,
{16}8b<3[4:1],,,,2,,,,2,,,,2/4,5,6,7,8h[4:1],,,,7,6,5,4,3/6,5,4,3,5,4,3,2,
{16}1b>6[4:1],,,,7,,,,7,,,,7/5,4,3,2,1h[4:1],,,,2,3,4,5,6/3,4,5,6,4,5,6,7,
{16}8bqq5[8:3],,,,3,,,,3,,,,6/3,7,8,1,2-5[8:1],,,,2/6,,,,3,4,2,4,1,4,8,4,
{16}7,,7,,86,,86,,15,,15,,24,,24,,3,3,3,3,2,4,2,4,1/5,6,7,8,1/5,2,3,4,
{16}5bw1[8:1],,,,5qq1[8:3],,,,5/7<5[8:1],,,,7b,,,,
{16}4bw8[8:1],,,,4pp8[8:3],,,,4/2>4[8:1],,,,2b,,,,
{16}6-4[8:1]*-2[8:1],,,,6V84[4:1],,,,6/3-1[8:1],,,,3-6[8:1],,,,3-8[8:1]/7-4[8:1],,,,3/7qq1[4:1],,,,7,,,,2b,,,,
{16}4bw8[8:1],,,,4pp8[8:3],,,,4/2>4[8:1],,,,2b,,,,
{16}5bw1[8:1],,,,5qq1[8:3],,,,5/7<5[8:1],,,,7b,,,,
{16}2,,2,,13,,13,,84,,84,,75,,75,,6,6,6,6,7,5,7,5,8/4,3,2,1,8/4,7,6,5,
{4}4b>5[2:3],4,5,5,4,4,3,2,1>8[2:3],1,8,8,1,2,3,4,
{4}6-4[8:1],8h[4:1],2-8[8:1],4h[4:1],7-2[8:1],5h[4:1],3-6[8:1],1,
{16}2,,2,,13,,13,,84,,84,,75,,75,,6,6,6,6,7,5,7,5,8/4,3,2,1,8/4,7,6,5,
{16}4bw8[4:9],
