&title=悔_
&artist=Essbee
&first=0
&des=Hamorati
&lv_5=14+
&des_5=Hamorati
&inote_5=
(193){4},,,,,,,,,,,,,,,5/1-4[8:1],
{1}1bq3[4:13]/5bq7[4:13],
{4},,,,,,,,,,,5q7[4:11]/1-4[8:1],
{1}5b/1bq3[2:5],
{8},,,,,,,,,,,,,,,,2>5[8:3],
,,5<8[8:3],,,{4}8w4[8:1],
{8}Cf,,,3/4,{2}4/3>8[2:1],
{8}C,,,6/5,{4}5/6<1[2:1],2,
{8}3,,,4-1[4:1],,1-6[4:1],,6-3[4:1],
,,,,{4}8,7/1-5[8:1],
{8}1>7[8:5],,,4xq8[4:1],,,,,1h[1:1],
,,3,,,{4}4,
5h[1:1],{8},,,,1,2,
3,{16},,,,1x,2x,3x,4x,5x,2x,3x,4x,5x,6x,
{4}1b-5[8:1],1,{8}8-4[8:1],7-5[8:1],8,7,
{16},,3,4,{8}2,{16}6,5,{8}7,2>5[8:1],1,8,
7>2[8:1],6,5,4<7[8:1],3,2,1>4[8:1],8,
7,{16}6,5,{8}6,2-5[8:1],8-4[8:1],2,8,7h[4:5],
{4}2x-5[8:1],2x,4x-1[8:1],4x,
{8},1,2,3,4/5,6,7,2h[8:9],
{4}7x-4[8:1],7x,5x-8[8:1],5x,
1-5-1[2:1],5xw1[4:1],{8},,,4b/3b,
{16}3v8[8:1],4,{8}3,3/4,{16}6v1[8:1],5,{8}6,6/5,3>8[8:1],4,
5,6>3[8:1],7,8,1-3[8:1],1-6[8:1],1pp5[4:3],1,
,,,5,6,7,8,8,
7,{16}6,5,{8}8,1,2,{16}3,4,{8}1v6[8:1],8,
1b,7,{16}7,8,{8}7,{16}2x,5x,3x,6x,4x,7x,{8}5x,
2b,{16}2,1,{8}2,{16}7x,4x,6x,3x,5x,2x,4x,1x,{8}3x,
4/3,2,5/6,7,2/4,3,5/7,6,
{16}3,4,2,6,5,7,2x,3x,1x,7x,6x,8x,{4}1b,
7<4[8:1],8,{8}1-6[8:1],2-5[8:1],1,2,
{4}3>8[8:1],4,{8}5-2[8:1],6-1[8:1],5,6,
{4}7<4[8:1],8,{8}1-6[8:1],2-5[8:1],1,2,
{4}3>8[8:1],4,{8}5-2[8:1],6-1[8:1],5,6,
{4}7>2[8:1],6,{8}5-1[8:1],4-8[8:1],5,4,
{4}3<6[8:1],2,{8}1-5[8:1],8-4[8:1],1,8,
{4}7>2[8:1],6,{8}5-1[8:1],4-8[8:1],5,4,
{4}3<6[8:1],2,{16}2,4,3,5,4,6,5,7,
{8}1b-5[8:1],5-2[8:1],{4}1,{8}7-4[8:1],8-3[8:1],7,8,
7-4[8:1],4-8[8:1],{4}7,{8}5-2[8:1],6-1[8:1],5,6,
4-8[8:1],8-3[8:1],{4}4,{8}6-1[8:1],5-2[8:1],6,5,
6-1[8:1],1-5[8:1],{4}6,{8}8-3[8:1],7-4[8:1],8,7,
2-5[8:1],5-1[8:1],{4}2,{8}4-7[8:1],3-8[8:1],4,3,
6-1[8:1],1-5[8:1],{4}6,{8}2-5[8:1],1-6[8:1],2,1,
3-8[8:1],8-4[8:1],{4}3,{8}1-6[8:1],2-5[8:1],1,2,
7-4[8:1],4-8[8:1],{4}7,{8}3-8[8:1],4-7[8:1],3,4b,
{1},,{24}8bx/1bxV35V71[1:3]*<1[1:3],
2x/7x,3x/6x,4x/5x,{1},,,{4},{16},{48},{4}2,
3,
{8}3h[2:3],,,,,4,,5,
,,{4}6,6h[2:3],5,
{8}4,,,5,,,,,{1}4w8[2:1],
{8}1b/8b,,,3,4,3,4,3h[8:7],
,,,,4,5,{4}6h[4:5],
{8},,,1,,,{4}2,
{8}3h[4:3],,,7,,,{4}6,
{8}2x/5x,{16}3,4,{8}3,2x/5x,{16}3,4,{8}3,2x/5x,1x/8x,
7x/4x,{16}6,5,{8}6,7x/4x,{16}6,5,{8}6,{4}4x/7x,
{8}1/2,1/2,2/3,3/2,3/4,3/4,4/5,5/4,
{16}3,6,2,7,4,5,1,7,3,6,2,7,{4}1>5[8:3]*<5[8:3],
{24}A1,D1/D2,A8/A2,D8/D3,A7/A3,D7/D4,A6/A4,D6/D5,A5,Cf,,,{8}2,{16}2,1,{8}2,3,
{16}3,5,4,6,5,7,6,8,1,7,2,6,3,5,{8}4h[8:3],
,,,8/6,5/7,{16}3,4,{8}3,5/2,
{16}3,4,{8}3,{16}2,8,1,7,2,6,3,5,4<8[8:3]*>8[8:3],5,4,5,
{24}A4,D4/D5,A3/A5,D3/D6,A2/A6,D2/D7,A1/A7,D1/D8,A8,Cf,,,{8}6,{16}6,5,{8}6,7,
{16}7,1,8,2,1,3,2,4,5,3,6,2,7,1,{8}8h[8:3],
,,,4/2,1/3,{16}7,8,{8}7,1/6,
{16}7,8,{8}7,{16}6,4,5,3,6,2,7,1,{4}8w4[8:1],
8b,{8}2>5[8:1],1,2/8,7>2[8:1],6,7/5,
4<7[8:1],3,4/2,1>4[8:1],8,1/7,6<1[8:1],5,
6/4-8[8:1],4x,3x-7[8:1],3x,2x-6[8:1],2x,1x-5[8:1],1x,
{16}7,8,7,1,8,2,1,3,2v5[8:1],5,3,6,{8}2,6,
7v4[8:1],{16}7,8,{8}7,3,1/2,4,5v2[8:1],{16}5,6,
{8}5,1,7/8,2,3v8[8:1],{16}3,4,{8}3,7,
5/6,8,1v6[8:1],{16}1,2,{8}1,5,3/4,{16}8,1,
7,5,6,4,5,3,4,2,3v8[8:1],1,,,{8}3/4,{32}A5f,D6,A6,D7,
A7,D8,A8,D1,A1,D2,A2,D3,A3,D4,A4,D5,,,,,{16}8,7,{8}8v3[8:1],,8/7,
4,{16}2,5,3,6,4,5,3,4,2,3,{4}1w5[8:1],
1b,{8}8/1,2,{16}3,5,4,6,5,7,{8}6v1[8:1],
,6/5,2,{16}3,4,1,8,5,6,1,8,{8}1v6[8:1],
,1/2,5,{16}7,4,6,3,5,4,6,5,7,6,
{4}8-4[8:1],{8}8/7,5,{16}2,6,3,8,1,5,4,7,
3,6,2,8,4,7,1,6,3,5,2,8,4,7,1,6,
3,8,4,5,1,8,2,7,1w5b[8:1],8,2,7,{4}1b,
{16}1b,8,1,8,1,8,1,8,1b,2,3,4,8b,7,6,5,
2b,1,2,1,2,1,2,1,2b,3,4,5,1b,8,7,6,
2b,1,2,8,2,7,2,6,5/2b,3/6,4/7,5/8,1b,2,3,4,
3b,5,3,6,3,7,3,8,7/3b,2/6,1/5,4/8,3b,2,1,8,
1b,8,2,7,1,8,2,7,1b,2,3,4,8b,7,6,5,
7b,8,6,1,7,8,6,1,7b,6,5,4,8b,1,2,3,
6b,5,6,4,6,3,6,2,3/6b,7/4,8/5,6/1,7b,8,1,2,
3,4/5,6,7,1/8,2,3,4,{12}5/1,5/1,5/1,6-3[8:1]/2-7[8:1],2/6,2/6,
{8}2b/6b,Cf/E1/E5,{4}4xw8b[8:1],4b,{16}2b,3,4,5,
7b,6,5,4,2b,3,2,4,2,5,2,6,5/2b,3/6,7/4,5/8,
1b,2,3,4,5b,4,5,3,5,2,5,1,5b,4,3,2,
1/4b,8/3,7/2,6/1,5b,4,3,2,{24}1bx/2bx,3,4,5,6,7,8bx,7,6,5,4,3,
{8}2b-7[8:1],2,6b-3[8:1],6,2b>5[8:1],2,6b<1[8:1],6,
4b-8[8:1],4,7b-3[8:1],7,2b-5[8:1],2,7b-4[8:1],7,
{16}1,5,3,7,2,8,4,6,3,7,2,6,1,5,8,4,
{20}7b,3,7,3,7,3b,7,3,7,3,{32}7b,8/4,5/1,6/2,7/3,4,5,6,7,8/4,1/5,2/6,3/7,4/8,5/1,6/2,
{1}7b/3b,
,,,{8}3h[8:7],
,,4,,5,,6h[8:9],
,,,,{2}5,
4h[8:7],{8}5,5,,7h[4:3],
,,,6,,5,1-3[8:1],8,
{2}6h[8:7],{8}5,4,5,4h[8:9],
,,{4}5,6,7,
{2}7h[8:7],{8}6,5,,3h[1:1],
,,,,,,6,6h[8:9],
,,,,{2}5,
{8}4h[8:13],,,5,6,7,,7h[8:3],
,,,6,,5h[4:1],,1>1[8:7],
,,,,,,,,{1}C,
E
