&title=izanai
&artist=イルマ; 初音ミク
&first=0
&des=jigoku
&lv_5=14
&inote_5=(209)
{4},,,,,,
{16}2x,,4,3,4,,
{16}2x,,4,3,4,,
{16}2x,,4,3,4,,
{16}2x,,4,3,4,,
{16}2xh,,5,4,5,4,,,
{16}7x,,5,6,5,,
{16}7x,,5,6,5,,
{16}7x,,5,6,5,,
{16}7x,,5,6,5s1[16:5],,
{16}7xh,,,,,,,,
{16}5x,,3,4,3,4,
{16}2x,,4,3,4,3,
{16}5x,,3,4,3,4,
{16}2x,,4,3,4,3,
{16}5xh,,2,6,2,6,2,,
{16}8x,,5,6,5,6,
{16}4x,,6,5,6,5,
{16}7x,,5,6,5,6,
{16}4x,,6,5,6-2[16:5],5,
{16}7xh,,,,,,,,
{16}8b^5-1^4[8:15]*-4[8:5],,,,,,,,,,,,
{16},,,,,,,,,,,,
{16},,,,,,,,,,,,
{16},,3x-7[8:1]/A7h[8:1],,,,,,
{16}6x,,,,6,,E1,,6,,,,
{16}6/E2,,,,6,,E3,,6,,,,
{16}6/E4,,,,6,,E5,,6,,,,
{16}6,,6x-2[8:1]/A2h[8:1],,,,,,
{16}1x,,,,4,,5/3-5[8:1],,,,3,,
{16}7-3[8:1],,,,1/7,,,,2,,,,
{16}6,,5-3[8:1]/7,,,,5/7-3[8:1],,,,2,,
{16}2,,,,18,,,,
{16}6-4[8:1],,8
,,6,,2-6[8:1],,5,,2,,
{16}7,,,,4-6[8:1],,,,2-6[8:1],,,,
{16}8,,,,4,,2,,,,7-3[16:5],,
{16}5-2[16:3],,,,,,,,,,,,
{16}1h[8:2],,,,5,,3/7-4[8:1],,,,7,,
{16}2-6[8:1],,,,21,,,,7h[8:2],,,,
{16}4,,2/6-2[8:1],,,,6/4-7[8:1],,,,8,,
{16}8,,,,21,,,,
{16}7-3[8:1],,1,,7,,2-5[8:1],,8,,2,,
{16}8h[8:2],,,,5-2[8:1],,,,7-3[8:1],,,,
{16}1h[8:2],,,,5,,7,,,,2,,
{16}4-8[8:1],,,,6-2[8:1]/4,,,,26,,,,
{16}1^4[16:5],,,,,,,,5,,,,
{16}7^2[16:5],,,,,,,,3,,,,
{16}4^7[16:5],,,,,,,,3,,,,
{16}5,,,,B7/E8/B8,,,,B3/B2/E3,,,,
{16}5^8[16:5],,,,,,,,2,,,,
{16}4^1[16:5],,,,,,,,6,,,,
{16}5p4[16:8],,,,,,,,2,,,,
{16}2,,,,D5fh[8:2],,,,
{16}1x^4[16:5],,,,3,,,,5,,,,
{16}7p3[16:5],,,,4,,,,2,,,,
{16}1-5[16:5],,,,4,,,,6,,,,
{16}8,,,,B2/E2/B1,,,,B6/B7/E7,,,,
{16}4q8[16:5],,,,8,,,,6,,,,
{16}5p1[16:5],,,,1,,,,3,,,,
{16}4-7[8:2],,,,7-2[8:2],,,,2-5[8:2],,,,
{16}5,,,,B6/E7/B7,,,,B3/B2/E3,,,,
{16}5h[4:1],,,,6,,,,47,,,,
{16}2h[4:1],,,,4,,,,16,,,,
{16}8h[4:1],,,,7,,,,5/2,,,,
(172)
{16}7x-3[8:1]/3x,,,,1x-6[12:1]*-6[12:1]/7x,,,,1x/4x-8b[16:1],,,,
{16}4b/2b-5-7-3-1b[8:11]/A8h[8:15],,,,,,,,,,,,,,,,
{16},,,,,,,,,,B8,,,,E8,,
{16}3h[8:2],,,,,,3h[8:2],,,,,,5h[8:2],,,,
{16}4,,6,,2,,8-5[10:1],,4v1[12:1],,,,,,,,
{16}6x-1-7-3-5b[8:11]/A2h[8:14],,,,,,,,,,,,,,,,
{16},,,,,,,,B2,,,,E2,,,,
{16}6xh[8:2]/A8h[8:1]/E8h[8:1]/E1h[8:1],,,,,,3xh[8:2]/A5h[8:1]/E5h[8:1]/E6h[8:1],,,,,,8xh[8:2]/A2h[8:1]/E2h[8:1]/E3h[8:1],,,,
{16},,7,,61,,5,,4,,3,,8-4b[16:1]/2,,17,,
{16}A4h[8:12]/8b/6b-1[8:1],,,,6,,,,2-6[8:1],,,,2,,,,
{16}5-1[8:1],,,,5/D4,,,,2/B4,,1,,8,,7,,
{16}26,,B3,,E5,,6-1[8:1],,4V25[8:2],,6,,4,,,,
{16},,8,,4,,6v1[10:1],,2-5[10:1],,6,,2,,,,
{16}3x-8[8:1]/A7h[8:12],,,,3,,,,1-5[8:1],,,,1,,,,
{16}6-2[8:1],,,,6/D8,,,,3/B7,,2,,1,,8,,
{16}73,,B6,,E5,,3-8[8:1],,5V74[8:2],,3,,5,,,,
{16},,3,,25,,1,,8,,7,,4/6^5s1[4:3]*^5s1[4:3],,5/3^4z8b[8:5],,
{16},,,,,,,,,,,,,,,,
{16}3bh[4:10]/7h[4:10],,,,,,,,,,,,
{16},,,,,,,,,,,,
{16},,,,,,,,,,,,
{16},,,,,,,,{32}4bx-7[8:1]/8bxv3[8:1],3x/7x,2x/6x,1x/5x,,,,,
||
!
{16}4b>6[16:4]/8b,,,,7,,5V71-3[16:4],,,,4,,
{16}4-7[8:1],,,,2-6[8:1]/4,,,,8<2[16:4]/2,,,,
{16}8/4,,,,,,1,,3/8,,56,,
{16}1/7-4[8:1],,,,3-8[8:1]/7,,,,5/3,,,,
||
!!
{16}7x,,3,4,3,,1x,,3,4,3,,
{16}1x/7x,,3,5,4,,2,6,4,,57,,
{16}2x,,6,5,6,,8x,,6,5,6,,
{16}8x/2x,,6,4,5,,7,3,5,4,8,,
{16}2x/6x,,4,4,5,,3x/7x,,5,5,4,,
{16}6x/2x,,4,4,5,2,7,3,5,1,8,,
{16}3,4,3,4,3,4,3,4,2,5,2,5,
{16}3,7,4,6,3,7,4,6,7x/3x,,,,
||
!!!
(172)
{32}1bx/Cf,2,3,4,5,6,7,8,1,2,3,4,5,6,7,8,1,2,3,4,5,6,7,8,
{32}1bx/Cf,2,3,4,5,6,7,8,1,2,3,4,5,6,7,8,1,2,3,4,5,6,7,8,
{32}1bx/Cf,2,3,4,5,6,7,8,1,2,3,4,5,6,7,8,1,2,3,4,5,6,7,8,
{32}1bx/Cf,2,3,4,5,6,7,8,1,2,3,4,5,6,7,8,1,2,3,4,5,6,7,8,
{16}1x/Cf,,,,2-5[8:1],,2,,4,,6,,
{16}8V64[4:1],,,,4V28[4:1],,2,,8-4[16:3],,,,
{16}4V61[24:8],,,,2-6[12:1],,1,,2,,,,
{16}7-4b[16:1],,,,3x-8b[16:1]/A4h[8:4]/7x,,,,A8hf[8:2]/3x,,,,
||
!!!!
{16},,2,6,3,5,
2,4,3,5,4,6,
{16}2,8,3,7,
2,8,3,7,
2,6,3,5,
{16}4,4,7,3,6,4,
7,5,6,4,5,3,
{16}7,1,6,2,
7,1,6,2,
7,3,6,4,
{16}5,5,2,6,3,5,
2,6,1,8,3,7,
{16}4,6,3,5,
2,4,1,8,
2,7,3,6,
{16}1,7,3,5,2,8,
4,6,3,7,2,8,
{24}1x,2x,3x,4x,5x,6x,2x,3x,4x,5x,6x,7x,3bx-7[8:1]*-7[8:1],4b,5b,6b,7b,8b,
{16}1b^4-8^5b[8:12]*-5b[8:4]/3b,,,,,,,,,,,,,,,,
{16},,,,,,,,,,,,,,,,
{16}6,,B7,,E1,,2-5[8:2],,,,,,,,,,
{16}6,,2,,8,,4,,5,,E3/B3,,B6/E7,,C,,
{16}8x-4^1b[8:8]*^5-1[8:8],,,,,,,,,,,,,,,,
{16},,,,,,,,6,,7,,8,,1,,
{16}2,,B3,,E5,,6-1[8:2],,,,,,,,,,
{16},,3x,,B2,,E1/D1,,7x,,B60,,E5/D5,,E8h[8:1]/D8/E2h[8:1]/D2,,
{16},,,,,,,,,,,,,,,,
