&title=名もなき何もかも
&artist=トゲナシトゲアリ
&first=-0.42
&des=Impliciter
&lv_5=13+
&inote_5=(187)
{1},
{1}5xh[8:23],,,
{8},,,,,,,5xh[8:17],
{1},,4h[8:12],6h[8:4],
{4}6/4>1[8:1],6,8pp2[8:1]/5,5,
{4}1/4<7[8:1],1,8qq6[8:1]/2,3>8[8:1],
{8}7-4[8:1],,2-6[8:1],,2-4[12:1],5-1[8:1]*-8[8:1],2x,5bx,
{8},2h[8:2],,6h[8:2],,4h[8:3],,,
{8}8,,,6h[4:1],,,,6h[4:1],
{16},,,,,,6h[8:1],,4,,3,5,3,,B6,E7,
{16}A7,,,,4,,E1,,,,,,4/B8,,,,,,B6,,4,,,,E6,,,,,,2-4[8:1],8,
{16}2,,,7,,,2-5[8:1],8,2,,,7,,,6,,
{16}6x,,,4x,,4x,,,8x,8xh[16:3],,2x,2x,,1x,,
{16}8/2,,,,3,,7V53[16:3],,1,,1-5[8:1],,,,1,,
{16},,E4,,C,,E8,,,,A6,,,,7-5[8:1],1,
{16}7,,,2,,,7-4[8:1],1,7,,,2,,,3,3,
{16}4,,2x,2x,,5x,5x,,1x,1x,,6x,6xqq7>2qq3[16:17],,3,,
{16}4hb[4:3],,,,,,,,,,,,,,,,
{16}4p8[8:1]*v7[8:1],,,,,,,,,,1,,2,,3,,
{8}4/6<1[8:2],,1p4[8:2],2,3,,2,2-4[12:1],
{8},2-8[12:1]/5,,2/6,,7,7,6,
{8}5/3>8[8:2],,8q5[8:2],7,6,,6,7-5[12:1],
{8},7-3[8:1]/4,,2/7,,1,2,3,
{8}4/6<1[8:2],,1p4[8:2],2,4pp6[8:2],,3,,
{8}2,2-4[12:1],,2-6[8:1]/6,,5-1[8:1]/2,,3,
{8},,8,7h[8:2],2,3h[8:2],6,5h[8:2],
{8}D2,B1,D7,E6,E3,E4,A4,,
{8}5h[4:6],,,,,,,,
{32}B4,E4,,,,,,,,,,,,,,,A2,,,,,,,,,,,,,,,,
{32}3h[4:6],,,,,,,,,,,,,,,,E6,A6,,,,,,,,,,,,,,,
{32}E1,A8,,,,,,,,,,,,,,,A7,,,,,,,,,,,,,,,,
{32}6h[4:6],,,,,,,,,,,,,,,,,,,,,,,,,,,,,,,,
{32}E2,A2,,,,,,,,,,,,,,,A3,,,,,,,,,,,,,,,,
{8}4h[4:3],,,,,,,,
{8}3x/5x,6x,2x/8x-4[8:1],3x,8-2[12:1]/4-6[12:1],,8b,,
{8}8x-4[8:1],,8-2[12:1]/4-6[12:1],,8,,8x-4[8:1],,
{8}8/4,,1x-3-5-2[16:5]/5x-7-1-6[16:5],,1b/5b,,,,
{8}4/8,,3-8[12:1]/7-4[12:1],,3/7,,2xv5>3[8:2],8,
{8}2,1,1<3[16:6],2x,5xpp7[8:1],,,,
{8}2hx[8:2]/6hx[8:2],,,6V42[8:2]/2-5[12:1],,2-8-5[8:2],,5V72[8:2],
{8},2<5[8:2],,4-8[12:1]b,,,,7x/1x,
{8},6,6-1[12:1],5,5-2[12:1],,8-4b[12:1],,
{24}1/8,Cf,,,,,5x-1[12:1],,,,,,5pp1[8:2],,,,,,3,,,,,,
{8}2x-6[12:1],,2pp6[8:2],,8,,1x-5[8:1],,
{8}1,,8v2>3-5[8:3]/2v8<7-5[8:3],,2b/8b,,A3/A7,,
{8}B1/E1/E2/A1f/D2/D1,,2-4-8[12:2],,4/2,,6xv1<7[8:2],4,
{8}6,4,4>6[16:6],6x,8x-4[8:1],,,,
{8}5h[8:1],,,8-6[12:1]/2-4-8[8:2],,8pp4[8:3],,5-7[8:1],
{8},5,,8-4[8:1]/3v1[8:1]
,,,,6h[8:2]/2,
{8},1,2-5[8:1]/6-2[8:1],5,6x<3[16:3]/2,,8x,,
{8}B5/E6/E5/A5f/D5/D6,,2b-5[12:1]b,,2b/8,,1b-6[12:1]b,,
{16}1b/3,,,,3,5,3,5,2,5,2,5,1,5,1,5,
{16}4,6,4,6,3,6,3,6,2,6,2,6,1,6,1,6,
{16}8b,,,,2/8,,,1,7,,4,5,3,,2/6,,
{16},,1/7,,6,5,6,5,7,7,,4,4,,8,8,
{16}1b,,,,6,4,6,4,7,4,7,4,8,4,8,4,
{16}5,3,5,3,6,3,6,3,7,3,7,3,8,3,8,3,
{16}1b,,,,7/1,,,8,2,,5,4,6,,7/3,,
{16},,8/2,,3,4,3,4,2,2,,5,5,,3,3,
{8}6h[4:6],,,,,,,,
{32}B4,E4,,,,,,,,,,,,,,,A2,,,,,,,,,,,,,,,,
{32}3h[4:6],,,,,,,,,,,,,,,,E6,A6,,,,,,,,,,,,,,,
{32}E1,A8,,,,,,,,,,,,,,,A7,,,,,,,,,,,,,,,,
{32}5h[4:6],,,,,,,,,,,,,,,,,,,,,,,,,,,,,,,,
{32}E2,A2,,,,,,,,,,,,,,,A3,,,,,,,,,,,,,,,,
{8}4h[4:3]/3h[4:2],,,,,,,2,
{16},,6,5,7,,,2,1h[16:1],,2,,8/3,,,,
{8}3h[4:2],,,,,,,,
{32}3h[4:2]/B5,E6,,,,,,,,,,,,,,,A7,,,,,,,,,,,,,,,,
{32}6h[4:2],,,,,,,,,,,,,,,,E4,A3,,,,,,,,,,,,,,,
{32}6h[4:2]/E1,A1,,,,,,,,,,,,,,,A2,,,,,,,,,,,,,,,,
{32}4h[4:2],,,,,,,,,,,,,,,,,,,,,,,,,,,,,,,,
{32}4hx[8:2]/E8,A7,,,,,,,,,,,,,,,4hx[8:2]/A6,,,,,,,,,,,,,,,,
{8}5/Ch[8:8],,5,,5,,5,,
{8}5h[8:2],,1,,3/7,5/1pp2<7pp8<5pp6>3pp4>1[16:54]b,,5hb[16:46]/A1f,
{1},,,
{16}6,,,7,,,8,,8,7,6,5,8,1,2,3,
{8}4/7,6,5/3,2,4/5,6,7/1,2,
{8}5,2,1/7,6,5/3,2,6/4,7,
{16}2,8,5,6,1,7,3,5,2,7,4,6,2,5,3,6,
{16},,
{48}8hx[16:4]/A2,,E3,,B3,,B4,,B5,,E6,,{32}6x,,7x,,8x,,1x,,2x,,3x,,{48}4hx[16:4]/A7,D7,A6,D6,A5,D5,,D4,A3,D3,A2,D2,
{8}A1f,,8h[16:1]/4,8h[16:1],8h[16:1]/3,8h[16:1],8h[16:1]/2,8h[16:1],
{8}7h[16:1]/5,7h[16:1],7h[16:1]/4,7h[16:1],7h[16:1]/3,7h[16:1],7h[16:1]/2,7h[16:1],
{16}1,,,,4/6,,,7,4,,6,6,4,,8,,
{16}4,,7,,4,5,3,5,4,6,4,5,3,,6,6,
{8}8,,1h[16:1]/5,1h[16:1],1h[16:1]/6,1h[16:1],1h[16:1]/7,1h[16:1],
{8}2h[16:1]/4,2h[16:1],2h[16:1]/5,2h[16:1],2h[16:1]/6,2h[16:1],2h[16:1]/7,2h[16:1],
{16}8,,,,5/4,,,3,5,,2,2,5,,1/5,,
{16},,6/4,,3,5,4,5,3,,2,,1q4[4:2],,8,,
{8}7x,,6x<1[8:1],5x,,,3,3-7[12:1],
{8},8-4[12:1],,2,,6,5s1[4:2],4,
{8}3x,3x,2x-6[8:1],2x,,,8/5V38[8:2],,
{8}8V25[8:2]*V26[8:2],,,,,7,8p5[12:6],1,
{8}2x,2x,3x>8[8:1],3x,,,6,6-2[12:1],
{8},1-5[12:1],1,7,,3,4z8[4:2],5,
{8}6x,6x,7x-3[8:1],7x,,,1,2-5[8:1]/4,
{8},6-2[8:1],,1-6[8:1],,4-8[8:1],,2,
{8},,1,2h[8:2],7,6h[8:2],3,4h[8:2],
{8}D8,B8,D3,E4,E7,,E6,A5,
{8}1,1-4[12:1],,8,8-5[12:1],,7,7,
{16},,2,4,3,,7,5,6,5,8,,1/7,,,,
{8}8,8-5[12:1],,1,1-4[12:1],,2,2,
{8}5x,2x,8x-4[8:1]b,3x,8>3[12:1]/4<7[12:1],,8b,,
{8}8x-4[8:1]b,,8>3[12:1]/4<7[12:1],,8,,8x-4[8:1]b,,
{8}4/8,,1x-3<6-3[16:5]/5x-7>2-7[16:5],,1b/5b,,,,
{8}6x-1-7-4[48:19],,2-5[48:7],2,2,,2xv7>1[8:2],4,
{8}2,4,5<3[16:6],3x,1qq7[8:1],,,,
{8}8hx[8:2]/4hx[8:2],,,6V42[8:2]/2-5[12:1],,2-8-5[8:2],,5xqq1>4[16:11]*<7[12:1],
{8},,,1qq7[16:3],,,,5x/8x,
{8},1,1V75[8:2],5,5V31[8:2],,1xw5[8:1],,
{24},Cf,,,,,7x-3[12:1]b,,,,,,1pp5[8:2],,,,,,6,,,,,,
{8}7x-3[12:1]b,,5qq1[8:2],,8,,7x-3[12:1]b,,
{8}1-5[8:1],,5pp5[8:2]*qq5[8:2],,,,A5,,
{8}B1/E1/E2/A1f/D2/D1/B8/B2/A8/A2,,6-3[8:1],6,4,,1x>3v6[8:2],4,
{8}1,5,5>7[16:6],7x,1v4[8:1],,,,
{8}6h[8:1]/3h[8:1],,,7p5[8:3],,7/2qq4[8:3],,2,
{8},6<3[8:2]b*q3[8:2],,{16}E7,E8,E1f,E2,{8}E3,,5h[8:3]/4,
{8},3,2,1,8v3[8:1]/6,,7-4[8:1],,
{8}2,,1b-5[12:1]b,,1b/5,,1bw5[12:1]b,,
{24}1b,Cf,,,,,{8}2h[16:1]/6,2h[16:1],2h[16:1]/7,2h[16:1],2h[16:1]/8,2h[16:1],
{8}3h[16:1]/5,3h[16:1],3h[16:1]/6,3h[16:1],3h[16:1]/7,3h[16:1],3h[16:1]/8,3h[16:1],
{16}1,,,,3/5,,,4,6,,1,8,2,,3/7,,
{16},,4/6,,7,1,7,1,6x,6x,,3x,3x,,5,5,
{8}1b,,7h[16:1]/3,7h[16:1],7h[16:1]/2,7h[16:1],7h[16:1]/1,7h[16:1],
{8}6h[16:1]/4,6h[16:1],6h[16:1]/3,6h[16:1],6h[16:1]/2,6h[16:1],6h[16:1]/1,6h[16:1],
{16}8,,,,6/4,,,5,3,,8,1,7,,6/2,,
{16},,5/3,,2,8,2,8,E2,E3,E4,E5,E6,,7-5[8:1],,
{16}8,,,1,,,7-4[8:1],,8,,,1,,,3x,3x,
{16}4x,,A2,B2,,A5,B5,,A1,B1,,A6,B6,,8x,,
{16}7/8,,,,6,,2V46[16:3],,,,8-4[8:1],,,,,,
{16},,E6,,C,,E2,,,,A3,,,,2-4[8:1],,
{16}1,,,8,,,2-5[8:1],,1,,,8,,,6x,6x,
{16}5x,,A7,B7,,A4,B4,,A8,B8,,2x,2x<7[16:2]b,,7,,
{16}2p7<2[8:17],D1f,
