&title=かくしん的☆めたまるふぉ~ぜっ!
&artist=土間うまる [CV.田中あいみ]「干物妹!うまるちゃん」
&first=0
&des=ユイリ@RinA
&wholebpm=139
&artistid=398
&shortid=10475
&genre=POPSアニメ
&genreid=101
&cabinet=DX
&version=maimai DX
&ChartConverter=Neskol
&ChartConvertTool=MaichartConverter
&ChartConvertToolVersion=1.0.9.0
&clock_count=4
&des_6=ユイリ@RinA
&lv_6=13
&inote_6=(139){4},,,,,,,,{8}3/4,
2,3/4,1,3/4,2,3/4,1,
8x/7x,{16}6x,5x,{8}6xq7[4:1],4,{2}6,
{8}6/5,7,6/5,8,6/5,7,6/5,8,
1x/2x,{16}3x,4x,{8}3xqq2[4:1],5,,{16}5,6,{8}7,8,
{2}1bx-5[8:1],7b-3[8:1],
{4}2b-6[8:1],8b-5[8:1],{8}4b-8[8:1],{4},{8}7,
6-1[8:1],{4},{8}3,2-5[8:1],{4},{8}6,
7,8,1,{16}8<5[8:1],1>4[8:1],{2}8,
{8}6/4,7,3/5,2,6/4,7,3/5,2,
6/4,7,3/5,2,6/4,7,3/5,2,
1/8,7,6,5,4h[4:1],{4},{8}7,
6/4,{16}6,5,{8}6,8,3/5,{16}3,4,{8}3,1,
6/4,{16}6,5,{8}6,3,1/2,{16}2,1,{8}3,7/4,
3/5,{16}3,4,{8}3,1,6/4,{16}6,5,{8}6,8,
{16}7/6,{8},{16}4/5,{8},2/3,{2}1/8p4[8:1],
{16}3/4,{8},{16}2h[16:3],{8},3h[8:1],4,E5,{4}E6,
{16}6/5,{8},{16}7h[16:3],{8},6h[8:1],5,E5,{4}E4,
3v6[8:1]/4xv6[8:1],3/4,6xv3[8:1]/5v3[8:1],6/5,
2-7[8:1]/3xp7[8:1],2/3,7xp3[8:1]/6-3[8:1],7/6,
{16}3/4,{8},{16}2h[16:3],{8},3h[8:1],4,E5,{4}E6,
{16}6/5,{8},{16}7h[16:3],{8},6h[8:1],5,E5,{4}E4,
2x-4[8:1]*-5[8:1],2,8x-6[8:1]*-5[8:1],8,
1q5[8:1],8p4[8:1],{2}2-6[8:1],
(198){1}4xh[4:3]/7xV53qq6[4:9],
4xh[4:3],
4xh[4:3],
6xh[4:3]/3xV57pp4[4:9],
6xh[4:3],
6xh[4:3],
4xh[4:3]/7xV13q5[4:7],
{2}4xh[#1.037716],(139){8},{4},{8}3,
{4}2/8,{8}7/2,6,5<7[8:1],6,4>2[8:1],3,
5<7[8:1],6,4>2[8:1],3,5<7[8:1],6,4>2[8:1],3,
{4}5,{8}1,8,7-5[8:1],6,2-4[8:1],3,
7-5[8:1],6,2-4[8:1],3,7,5x,2x/4x,6x/5x,
{4}2bxv7[8:1]/4bxv7[8:1],2b/4b,{8}6,{16}8,7,{8},7/1,
2/6,8/4,2/6,8/4,7,{16}5,6,{8},4-1[8:1],
5h[4:1],{4},{8}1x-3[8:1],5,1-7[8:1],6,1-3[8:1],
5,1-7[8:1],4,1,5xh[4:1],6,7,8,
{16}1-5[8:1],{8},{16}8,{4}1,{8}6,4h[4:1],{4}5,
{8}3/5,6/4,3/5,6/4,{16}5/3h[16:3],{8},{16}5h[16:3],{8},4h[8:1],
{4}8b,{8}4,8-6[8:1],4,8-2[8:1],3,8-6[8:1],
4,8-2[8:1],5,8,4x,3x/Cfh[8:3],4x,3x,
{4}2xh[4:1],6,{8}6b-1[8:1]/4b-2[8:1],7b/3b,{4}6b/4b,
{8}6b-8[8:1]/4b-1[8:1],7b/3b,{4}6b/4b,{16}6xz2b[4:1],5x,7x,4x,{4}6x/4x,
{8},A1/B1,A2/B2,5pp5[4:1]*qq5[4:1],6,5,{4},{8}4,
3,{4}2>5[8:1],{8}6,7,8<5[8:1],1,
4,3,2>5[8:1],1,2,{16}8,7,{8}6V85-1[8:3],5/4,
{2}6,{8}3,2,1>4[8:1],8,
5,6,7<4[8:1],8,7,{16}1,2,{8}3V14-8[8:3],4/5,
{2}3,B7/B6/B2/B3/Cf,
,{16}8xh/1xh,{8},{16}7xh/5xh,{8},2xh/4xh,
{1}1bxh/8bxs4[8:1],
E
