&title=返り討ち
&artist=john
&first=0.14
&des=Hwaaaxd
&lv_5=13+
&inote_5=(170){4},,,,2/4,
{8}6,1,2h[4:1],,,8,
{4}3-1[8:1],4,7-5[8:1],8,
4/2,{8}6,1,2h[4:1],,,7,
{4}1-3[8:1],8,5-7[8:1],4,
8/2,{8}3,8,7h[4:1],,,2,
{4}5-7[8:1],4,1-3[8:1],8,
5-8[8:1],5/3,{8}7x/4x,3/6,5/2,4h[8:3]/1h[8:3],
,,,,{2}2-7[8:1]/3-6[8:1],
{4}8bx/4bx-2[8:1],{8}6/4x,7,{4}8-4[8:1],{8}8/4,3,
{4}2x-6[8:1],{8}2/5<8[8:1],4x,,B1,{4}E4,
4/7-5[8:1],{8}7x/3,2,{4}1-5[8:1],{8}1/5,6,
{4}7x-3[8:1],{8}7/4>1[8:1],5x,,B8,{4}E6,
6/8,{8}1>4[8:1],5,{4}7-3[8:1],{8}4x,2,
{4}8x-2[8:1],8-6[8:1],{8}8-4[8:1],A5,{4}A7,
3/1,{8}8<5[8:1],4,{4}2-6[8:1],{8}5x,7,
{4}1x-7[8:1],1-3[8:1],{8}1-5[8:1],A4,{4}A2,
4x/6xh[4:7],{8}3,3,,1,,5,
{4}5,{8}2,2,,7,{4}5-8[8:1],
5/3h[4:7],{8}1,1,,7,,4,
{4}4,{8}6,6,,E7,{4}E1,
8/2h[4:7],{8}7,7,,4,,8,
{4}8,{8}6,6,,3,{4}1-4[8:1],
1/7h[8:11],{8}5,5,,3,,1,
{4}1,{8}5,5,,8/E5,{4}6/E3,
{8}1,3,2,4,3,5,4,6,
{4}5-2[8:1],7/5-8[8:1],5/3,{8}4,2h[4:1],
,8,6,7,5,6,4,5,
{4}3-1[8:1],3<6[8:1],{8}8,1,{4}2-5[8:1],
{8}2/8,,,7/5,2/1,,,5/6,
{4}2/4>1[8:1],5,7<4[8:1],8,
1-4[8:1],1/7,{8}3/8,2/7,6/1,5h[8:5]/8h[2:1],
,,,,,,{4}1/3,
{8}E2f/7b-1[8:1],6,2-4[8:1],3,{4}6-2[8:1],{8}3,1-3-8-4[4:1],
,4,5,6,{2}7-3b[8:1],
{8}2-4[8:1],1,7-1[8:1],6,{4}3-7[8:1],{8}6,8v5-7>8[4:1],
1x,2,3,4x,{2}5-1b[8:1],
{8}6-8[8:1],5,3-5[8:1],2,{4}1V75[16:3],{8}3,1x-3[8:1],
,4,5,6-8[8:1],,2qq5[16:5],,6,
,,{4}6x/7x-3[8:1],7/8-4[8:1],8/1-5[8:1],
1/3b>8b[8:1],4/3,7b<4b[8:1],8/7,
{8}B8f/2b-4[8:1],3,6-1[8:1],5,{4}3-7[8:1],{8}8,6>5-8-4[4:1],
,4,3,2,{2}1-5b[8:1],
{8}7-1[8:1],6,2-5[8:1],3,{4}7-3[8:1],{8}4,2-4-8-3[4:1],
1x,8,7,6x,5-1b[8:1],1x,2x,3x,
4-2[8:1],5,7-5[8:1],8,{4}1V35[16:3],{8}6,8-4[8:1],
,4,3,2-8[8:1],,5pp2[16:5],,1,
,,{4}1x/8x-4[8:1],8/7-3[8:1],7/6-2[8:1],
6/4>1[8:1],5/4,8<5[8:1],8/1-4b[8:1],
6x,{8}6,7,{4}8/3-8[8:1],{8}6,5,
{4}4<7[8:1],{8}4/2,3,4-1[8:1],B5,{4}E8,
6-4[8:1],{8}1,2,{4}3-8[8:1],{8}6/3,5,
{4}4<7[8:1],{8}4/2,3,4-1[8:1],B8,E6,{16}5x,6x,
{4}7x-1[8:1],{8}2,3,{4}4>1[8:1],{8}4/6,5,
{4}4-7[8:1],{8}4/1,2,3V52[8:1],E1,{4}B6,
8-6[8:1],{8}2,3,{4}4-1[8:1],{8}4/6,5,
{4}4<7[8:1],{8}4/2,3,4-1b[8:1],B5,E8,{16}7x,6x,
{4}5xh[#2.470589],{8}7,8-2[8:1],,8,,3,
{4}3,{8}8,8,,7,{4}4-6[8:1],
4/2h[4:7],{8}8,7-5[8:1],,7,,4,
{4}4,{8}7,7,,B1,{4}E4,
6/4h[4:7],{8}2,1-7[8:1],,1,,6,
{4}6,{8}1,1,,2,{4}5-3[8:1],
5/7h[1:1],{8}1,2-4[8:1],,2,,5,
4,4,7,7,1-4b[8:1],B5,{4}E8,
{8}8,6,7,5,6,4,5,3,
{4}4-7-1[4:1],1-5[16:3],4,{8}6x,7xh[4:1],
,1,3,2,4,3,5,4,
{4}6pp8[4:1],8<4[4:1],{8}2,E3,{4}E1,
{8}6/1,,,7/8,4/2,,,6/5,
{4}1>4[8:1],8,6<1[8:1],5,
4/2,8/2,{8}4/7,6/3,5/2,4/1,
2x,{16}6,5,,2,{8}1,{16}3x,8,4,6,2,5,3,7,
{8}B6f/1bx-3[8:1],8,6-1[8:1],5,{4}4-8[8:1],{8}1x,6V85-1[4:1],
,2,3,4,{2}5-2b[8:1]*-3b[8:1],
{8}7-5[8:1],8,2-8[8:1],3,{4}4-8[8:1],{8}7x,3x-5-1>3[4:1],
1,8,7,6,{2}5-1b[8:1]*-2b[8:1],
{8}7-4[8:1],6,2-8[8:1],3,{4}5<1[16:3],{8}3,5x-2[8:1],
,6,7,8-6[8:1],,4-1[8:1],,5,
7x-4[8:1],8,3-8[8:1],2,5-1[8:1],6,2,3,
{4}4b>1b[8:1],4/6,8b<5b[8:1],8/2,
{8}B5f/3b-1[8:1],2,7-4[8:1],8,{4}2-6[8:1],{8}5x,8-4-7<6[4:1],
,1,2,3,{2}4-8b[8:1]*-7b[8:1],
{8}6x-4[8:1],7,3-8[8:1],2,{4}6-2[8:1],{8}1x,4-8-2>4[4:1],
5x,6,7,8x,1-5b[8:1],5x,4x,3x,
2-5[8:1],1,7-1[8:1],6,{4}4>8[16:3],{8}6,4x-7[8:1],
,8,1,2-5[8:1],,7-1[8:1],,7,
3-8[8:1],2,7-3[8:1],6,1>4[8:1],2,5,6,
{4}7b<4b[8:1],7/1,3b>8b[8:1],{16}3/8,7,6,5,
{4}4x-2[8:1],4/8,{8}6-1[8:1],2,{4}6/3,
{8}4>1[8:1],3,4/8<5[8:1],7,{4}8-3[8:1],8/4,
5-7[8:1],5/1,{8}3-8[8:1],7,{4}3/6,
{8}5<8[8:1],6,5/1>4[8:1],2,{4}1-6[8:1],1/5,
{8}4,4,3-8[8:1],6,{4}7-3[8:1],1,
{8}8,8,7-4[8:1],2,{4}3-7[8:1],5,
{8}8-6[8:1],5,6-1[8:1],2,{4}1-5[8:1],3,
{8}4b-2b[8:1],1,2b-5b[8:1],6,5b-1b[8:1],6,{4}7b-3b[8:1],
7/8,1-3[8:1],{8}1/5,6,{4}7-1[8:1],
{8}7/3-5[8:1],2,3/8-4[8:1],7,{2}8-6b[8:1]*-2b[8:1],
{4}4-2[8:1],4/8-6[8:1],{8}8/4,3,{4}2-8[8:1],
{8}2/6-4[8:1],7,6/1-5[8:1],2,{2}1-3b[8:1]*-7b[8:1],
{8}4,4,3-1[8:1],6,{4}7-3[8:1],8,
{8}1,1,7-5[8:1],2,{4}3-7[8:1],4,
{8}8-5b[8:1],4,5-1b[8:1],2,{4}1-6b[8:1],3,
{32}1x,2x,{16}3xh[16:7],,,,,{8}8,{4}7-5[8:1],1/7,
2/4,{8}8,7h[8:3],{4}4,{8}3-8[8:1],5,
,7,6,5-7-4-8[16:5],,,{4}2,
3/1,{8}5,6h[8:3],{4}1,{8}2-4[8:1],8,
,6,7,8<7-5v8[16:5],,,{4}3,
2/4,{8}8,7h[8:3],{4}4,{8}3-5[8:1],6,
,7,8,1-6-4-7[16:5],,2,,3h[8:3],
,,8,8,,,{4}2/6,
8bw4b[8:1],8b,8b<5b[16:3],{16}4x/8b,3,2,1,
{8}B5f/8bx-4[8:1],7,6-1[8:1],5,2-8[8:1],3,2-4[8:1],6,
7-3[8:1],8-4[8:1],7,8,{2}1xw5b[8:1],
{8}B6f/4x-8[8:1],3,2-5[8:1],1,6-4[8:1],7,6-8[8:1],2,
3-1[8:1],4-7[8:1],3,4,{2}8xw4b[8:1],
{8}2-5[8:1],1,2/6-1[8:1],7,6/4-8[8:1],3,4/7,6-3[8:1],
,8,1,2-5[8:1]*v4[8:1],,2-7[8:1]*v8[8:1],,2,
,,{4}4h[8:1]/2h[8:1],5h[8:1]/3h[8:1],6h[8:1]/4h[8:1],
{16}5bx/7bx,4,3,2,1bx/8bx,7,6,5,4bx/8bx,1,2,3,4bx/1bx,8,7,6,
{4}5bx/2bx-8[8:1],7-5[8:1],{8}4,3,{4}2-4[8:1],
7-1[8:1],2>5[8:1],{8}6,7,{4}8,
7-1[8:1],2-4[8:1],{8}5,6,{4}7-5[8:1],
2-8[8:1],7<4[8:1],{8}3,2,{4}1-3[8:1],
{8}1-5[8:1],7<4[8:1],1,7,{4}8w4b[8:1],8b,
{8}8x-4[8:1],2>5[8:1],8,2,{4}1w5b[8:1],1b,
{8}3-8[8:1],2,3/7-4[8:1],6,{4}7/1>4[8:1],1/8,
5bw1b[8:1],5b,5b<1b[16:3],{16}1x/5b,2,3,4,
{4}5-1[8:1],{8}7-5[8:1],8,{4}7/3-8[8:1],3/4-7[8:1],
{8}4/1x-5[8:1],2,1/8-4[8:1],7x,{2}8<6b[8:1]*>2b[8:1],
{4}4-8[8:1],{8}2-4[8:1],1,{4}2/6-1[8:1],6/5-2[8:1],
{8}5/8x-4[8:1],7,8/1-5[8:1],2x,{2}1>3b[8:1]*<7b[8:1],
{8}4,4,3-8[8:1],7,{4}8-4[8:1],6,
{8}8,8,7-4[8:1],3,{4}4-8[8:1],2,
{8}3-1[8:1],8,1-4[8:1],5,{4}4-8[8:1],6,
{32}8xw4[4:7],7x,{16}6x,
E
