&title=スタートリップ
&artist=保科めぐみ
&first=-0.98
&des=Locate66
&lv_5=13
&inote_5=(148)
{8},,,,,,,,
{8}7h[8:3],,5,5h[8:3],,3,3h[8:3],,
{8}1,1h[8:6],,,A6,A7,,8<5-2-7-4[8:11],
{8},,,C1hf[8:5],,,,,,,,,,,,,
{8}24,5,46,7-4[8:1],,3-8[8:1],,6-1[8:1],
{8},2-5[8:1],,7>2[8:1],,3,4,5>2[8:1],
{8},7,6,5<8[8:1],,3,4,5xw1[8:1],
{8},5,,3V52[4:1]/7,,83,7,6,
{8}6-1[8:1],6,2-5[8:1],2,7-4[8:1],7,1,8>3[8:1],
{8},6,7,8<5[8:1],,2,1,8-4[8:6],
{8},,,,,,,8-4b[8:5],
{8},,,B2/E3,,,B3,,
{1}2h[8:14]/5pp4>7[8:12],,
{1}4-7-2-5-1[8:12]/6h[8:14],,
{1}2/8pp6[8:8],
{1}4pp2[8:8],
{1}6>5p4>3[8:8],
{8}C1,,,,2,35,6,47,
{8}8h[8:1],5,7h[8:1],5,6h[8:1],4,5h[8:1],3,
{8}2p6[8:1],,25,4,4q8[8:1],,42,,
{8}1-5[8:1],,61,6qq1[8:5],,3,,3hx[8:3],
{8},,,,28,,75,6,
{8}4,35,2h[4:1]/4v1[8:1],,,,2,1,
{8}8v5[8:1]/7h[4:1],,,,8h[8:2],,5,,
{8}6/4-2[8:1],,46,7,7-4[8:1],,17,2,
{8}2-8[8:1],,42,5,5-8b[16:1],,4bx/A8,,
{8}1-3[8:1]/7-3[8:1],17,1>7[4:1]/7,,7V52[4:1],,2V48[4:1],2,
{8},5,6,,1,,28,,
{8}4-8[8:1]/6-8[8:1],46,4/6<4[4:1],,4-2-8-6[4:1],,5,5h[8:2],
{16},,,,46,,5,,4h[16:3],,,3h[16:3],,,2,,
{16}1/4q8[8:1],,,,,,3,,4h[16:3],,,5h[16:3],,,6,,
{16}5p1[8:1]/7,,,,,,7,,7h[16:3],,,8h[16:3],,,1p5[8:1],,
{16},,3,,2q6[8:1],,,,21,,,,8,,1/7v4V68[8:3],,
{16},,,,2,,3,,4h[8:1],,,3h[8:1]/5h[8:1],,,26,,
{16}1q5[8:1]/7,,,,1,,7q3[8:1],,,,7,,5>2[8:1],,,,
{8}8,,1b/7b,,1-5[8:1],,1-3[8:1]/8-3[8:1],,
{8}1-6[16:3]/8V26[16:3],,,,,5,46,37,
{8}2V46[8:2]/8,,2/6-3[8:1],,8-4[8:1],,2,,
{8}1b>4[8:1],,5,6b<1[8:1],,4bV25[4:1],,5bV38[4:1],
{8},,,,{16}5-7[16:1],,,1,5,,2,,
{8}3-1[8:1]/8-4[8:1],,3x/8x,,{16}2-4[16:1],,,6,2,,7,,
{8}5>2[8:1]/8<5[8:1],,5x-1[8:1]/8x,,2x-6[8:1]/5x,,82,,
{8}7<1[8:3],,,1-7-5-3-1[8:4],1,,3,3h[8:2],
{8},,4b/8b,,5-1[8:1],,4-7[8:1]/5-7[8:1],,4V62[16:3]/5-2[16:3],,,,,8,17,26,
{8}3/5-1[8:1],6,7-4[8:1]/5,8,7/2-8[8:1],3,25,6,
{8}7b<4[8:1],,4,3bp7[8:1],,6b-2V84[8:3],,1hx[8:2],
{8},,1,2/5-7[8:1],,,3,,
{8}46,,35,2h[8:2]/4,{16}A4,B4,C1,B8,A8,,2,,
{8}3,1,8,7h[8:2]/1,{16}A1,B1,C1,B5,A5,,7,,
{8}46,,35,3h[8:2]/5h[8:3],,,B3/B2,B5/B6,
{8}4h[8:1],6h[8:1],B3/B4,B6/B7,2h[8:1],8h[8:1],C1hf[8:2],8,
{8}7b>2[8:1],,6,5bv2[8:1],,8b<8b[8:3],,1hb[8:2],
{8},,3,4h[8:12],,6,7,8hb[8:8],
{8},,,,,,,,
{8}5xw1[8:1],,A5f/D5/D6,,,,,,
{8}3-8[8:1],3,7-4[8:1],7,2-5[8:1],2,8,1<6[8:1],
{8},3,2,1>4[8:1],,6,7,8h[8:5],
{16},,E5,E6,E7,E8,E1,E2,E3,E4,E5,E6,E7,E8,1hx[8:2]/5h[8:2],,,,,,2,4,3,,12,,87,,56,,4/3qq7[8:19],,,
