&title=星色夜空
&artist=藤宮ゆき
&first=0
&des=He1ix
&des_5=
&clock_count=4
&lv_5=12+
&inote_5=(124)
{1},
{4},,,,{2}6>3[8:1],
2q6[8:1],
{1}7<2[2:1],
{2}3<6[8:1],7p3[8:1],
{1}2q5[2:1],
{2}7h[2:1],4h[2:1],
5h[2:1],{4}2h[4:1],8h[4:1],
1q5[4:1],5q1[4:1],1>5[4:1],5>5[2:1]*<5[2:1],
,,,{8}4,5,
{4}3/6h[4:1],{8}3,5/2h[4:1],,5,{4}1/6h[4:1],
{8}1,2,3/7,6,5/2,{32}E3,B3,B4,B5,{8},7,
{4}6/3h[4:1],{8}6,4/7h[4:1],,4,{4}8/3h[4:1],
{8}8,7,6/2,3,4/7,{32}B7,B6,B5,E5,{8},2,
{4}3/5h[4:1],{8}4,6/4h[4:1],,7,{4}3h[4:1]/7p5[16:5],
{2},{8}3,4,6,5,
{4}2>5[4:1],5<8[4:1],8>3[4:1],3qq7[2:1]*<7[2:1],
,,,{8}1,8,
{4}1x>4[8:1],{8}7,7x<4[8:1],,2,{4}2-6[8:1],
2xV46[6:1],{8}7,7x>2[8:1],,5,{4}5>2[8:1],
5xp1[8:1],{8}7,7xp3[8:1],,1,{4}1-5[8:1],
1x,{8}4/8,3x/7x,{4}2/6,{8}5,4,
{4}5x<8[8:1],{8}4,4xV62[16:3],,7,{4}7h[4:1],
1x>4[12:1],{8}8,8xV62[16:3],,4,{4}4h[4:1],
{1}1xV35[2:1]*V75[2:1],
{8}4,4-1[8:1]*-7[8:1],,4,{4},7-2[4:1],
4,3-8[4:1],6,7qq5[4:1],
1,2>5[4:1],7,6q7[4:1],
C,2q3[4:1],C,6V47[8:3],
{2}4qq2[8:1],{4}1/8,2<7[4:1],
5,6q3[4:1],4,4v2[4:1],
8,7v2[4:1],3,4,
{8}8/2h[8:1],7,6/4h[8:1],7,1/7h[8:1],2,3/5h[8:1],2,
B2/E3/B3,B7/E7/B6,1-5[12:1]/8-4[12:1],2/7,{4}1b/8b,{8}5-2[8:1],6,
{4}7,{8}4-7[8:1],3,{4}2,{8}2>4[8:1],1,
8>2[8:1],7,6<8[8:1],5,{4}4,{8}2>5[8:1],1,
{4}8,{8}6,4,5/3,2,4/6<2[4:1],7,
{2}6/2v4[6:1],{4}C,{8}7p3[6:1],7,
{4}8,{8}2>5[8:1],2,{4}1,{8}7-4[8:1],7,
2-5[8:1],2,8-4[8:1],8,{4}1,{8}6-2[12:1]*-1[12:1],5,
{4}6,{8}3-7[12:1]*-8[12:1],4,{4}3,8-6[8:1]/4-2[8:1],
8bv5[8:1]/4bv1[8:1],8b<5[8:1]/4b>1[8:1],8b/4b,{8}7/8-4[8:1],1,
{4}8/2,{8}2/1-5[8:1],8,{4}1/7,{8}7-5[8:1],8,
1-7[8:1],2,3-1[8:1],4,{4}5,{8}7<4[8:1],8,
{4}1,{8}3,5,4/6,7,5/3V16[4:1],2,
{4}3/6V47[4:1],7-3[12:1],C,{8}2-5[8:1],1,
{4}8/2,{8}7-4[8:1],8,{4}1/7,{8}1>3[8:1],7-3[8:1],
1-5[8:1],7<5[8:1],1>5[8:1],7,{4}1,{8}7qq5[8:1]/3qq1[8:1],6/2,
{4},{8}2-5[8:1]/8-5[8:1],7/3,{4},4-2[8:1],
4b-6[8:1]*-7[8:1],4bw8[8:1],4b,B7/C/B2,
7pp4[16:5],3h[4:1],{8},3,{16}6,4,5,3,
{8}6,6,{4}5qq1[16:5],5/7,7,
2qq5[16:5],6h[4:1],{8},6,5,4,
{16}3,6,2,7,{8}1,8,{4}1>4[12:1]*<6[12:1],1,
{16}E2,B1,B8,E8,,B3/B4,,B6/B5,,E3/E7,,E6,{8}B5,B4,
Ch[4:1],{4},{16}E3,B3,{8}B4,E7,B6,B5,
{16}2,6,3,6,1,6,3,6,1,7,1,8,1,6,1,8,
{8}1b,{16}7,8,{8}6<1[8:1]/1>4[8:1],6/1,{2}6b/1bw5[8:1],
{1}B7/B2/B6/B3/Cf,
E
