&title=さようなら、花泥棒さん
&artist=メル (Cover. 鎖那)
&first=0.03
&des=7 Days to Know.
&des_5=7 Days to Know.
&lv_5=13+
&inote_5=(170){4},,,,,,,,3,
3,{8}6,6,{4}6,
{8}4/5,4/5,4/5,4/5,,6,{4}2b-4[8:1],
7h[4:1],{8}8,8,{4}6/1,{8}2v5[8:1],1,
2,7,4x/6x-1[8:1],3x,{4}6,7x/2x,
2h[4:1],{8}1,1,{4}3/8,{8}7v4[8:1],8,
7,2,5x/3x-8[8:1],6x,{4}3,2x/7x,
6h[4:1],{8}5,5,{4}7/4,{8}3v8[8:1],4,
3,6,1x/7x-4[8:1],2x,{4}7,6x/3x,
3h[4:1],{8}4,4,{4}2/5,{8}6v1[8:1],5,
6,3,8x/2x-5[8:1],7x,2,7,{4}3x/6x,
7h[4:1],{8}8,8,{4}6/1-5[8:1],{8}1,7-4[8:1],
8,7,2x-5[8:1],1x,{4}2,7x/1x,
2h[4:1],{8}1,1,{4}3/8-4[8:1],{8}8,2-5[8:1],
1,2,7x-4[8:1],8x,{4}7,2x/8x,
6h[4:1],{8}4,5,{4}6/3>8[8:1],{8}3,5q1[8:1],
4,5,3xp7[8:1],5x,{4}3,6x/8x,
3h[4:1],{8}5,4,{4}3/6<1[8:1],{8}6,4p8[8:1],
5,4,6xq2[8:1],3x,6,4,{4}3x/1x,
7h[4:1],{8}5,6,{4}3-5[8:1],{8}5,6-3[8:1],
,6/3,2,1,{4}2-5[8:1]/8-5[8:1],2/8,
2h[4:1],{8}4,3,{4}6-4[8:1],{8}4,3-6[8:1],
,3/6,7,8,{4}7-4[8:1]/1-4[8:1],1/7,
6h[4:1],{8}3,4,{4}2-6[8:1],{8}6,5-3[8:1],
,7,8,1,{4}2v4[8:1]/7v5[8:1],2x/7x,
3h[4:1],{8}6,5,{4}7-3[8:1],{8}3,4-6[8:1],
,3,2,1,5/7,8,2/4,1,
{4}5b/7bh[4:1],{8}5,6,{4}3<5[8:1],{8}5/3,6-3[8:1],
,6/3,2h[8:1],1,{4}3-1[8:1]/8-4[8:1],3/8,
2h[4:1],{8}4,3,{4}6>4[8:1],{8}4/6,3-6[8:1],
,3/6,7h[8:1],8,{4}6-8[8:1]/1-5[8:1],6/1,
7h[4:1],{8}3,4,{4}2-6[8:1],{8}6/2,5-3[8:1],
,7/5,8,1,{4}2-5[8:1]/6-1[8:1],2x/6x,
3h[4:1],{8}6,5,{4}7-3[8:1],{8}3/7,4-6[8:1],
,3/4,2,1,5/7,8/1,2/4,5/6,
{4}8b/7b,{8}1pp5[8:3],6,{4}6,{8}7,7,
8-6[8:1],8,3-1[8:1],3,{4}5x,7/4,
8b/3b,{8}8qq4[8:3],3,{4}3,{8}2,2,
1-3[8:1],1,6-8[8:1],6,{4}4x,2/5,
6b/1b,{8}1pp5[8:3],6,{4}6,{8}7,7,
3/8-5[8:1],8,4-1[8:1],4,{4}8bx,6/2,
3b/8b,1b/6b,{8}7b/5b,4b/8b-4b[8:1],,3b/8b,
{4}2b-6[8:1],C,{8}7h[8:1],5,2h[8:1],4,
1/8,{16}2,4,{8}3,{16}7,5,{8}6,{16}1,8,1,8,1,8,
{8}2-5[8:1],5-1[8:1],2,7,6-8[8:1],2-5[8:1],6,2,
8x,{16}7,5,{8}6,{16}3,4,{8}2,{16}7,8,7,8,7,8,
{8}6-1[8:1],1-5[8:1],6,3,2-4[8:1],6-1[8:1],2,6,
{4}4xh[4:1],{8}2,1,8/3,7,{4}6/2h[4:1],
5xh[4:1],{8}7,8,1/6,2,3/7,8,
5-2[8:1],1-5[8:1],5,1,,1,4-7[8:1],8-4[8:1],
4,8,,,1h[8:1],2,{16}8,1,8,1,
{8}2/7,{16}6,5,{8}6,{16}3,4,{8}3,{16}8,1,8,1,8,1,
{8}7-4[8:1],4-8[8:1],7,2,3-1[8:1],7-4[8:1],3,7,
1x,{16}2,4,{8}3,{16}6,5,{8}7,{16}2,1,2,1,2,1,
{8}3-8[8:1],8-4[8:1],3,6,7-5[8:1],3-8[8:1],7,3,
{4}5xh[4:1],{8}7,8,1/6,2,{4}3/7h[4:1],
4xh[4:1],{8}2,1,8/3,7,6/2,1,
4-7[8:1],8-4[8:1],4,8,,8,5-2[8:1],1-5[8:1],
5,1,,,8h[8:1],7,{16}1,8,1,8,
{4}7b/2b,{8}7qq4[8:3],3,{4}3,{8}2,1-4[8:1],
,1/5-1[8:1],,5/7,{4}8p4[8:1],4/8,
1b/3b,{8}2pp5[8:3],6,{4}6,{8}7,8-5[8:1],
,8/4-8[8:1],,4/1-4[8:1],,1/5v3[8:1],6,7,
{4}8-5[8:1],{8}8,2,8-4[8:1],7,2-6[8:1]/8-6[8:1],3,
{4}2bx-4[8:1]/8bx-4[8:1],8bx/2bx,{8}7/5,6,4/2,3,
{4}5x/4x,{8}B2,B1,{4}4h[4:1],B7,
6x/4x,{8}B2,B1,{4}4h[4:1],B7,
6x/4x,{8}B2,B1,{4}4h[4:1],B7,
{1}Cfh[2:1]/6x<3[8:3],
{4}6/3>6[2:1],{8}5,5,{2}4h[4:1],
{4}3>6[2:1],{8}5,5,{2}4h[4:1],
{4}3<6[8:1],7-2[8:1],3<6[8:1],7-2[8:1],
5h[4:1],{8}1,1,8,7,{4}6>8[4:3],
{2}6xh[8:3],{4}7,6,
{2}5h[8:3]/7>4[2:1],6,
{4}1<6[4:1],6>3[4:1],,8>3[4:1],
{2}3<6[4:1],{8}1,1,8,7,
{4}7/2>7[2:1],{8}8,8,{2}1h[4:1],
{4}2>7[2:1],{8}8,8,{2}1h[4:1],
{4}2<7[8:1],6-3[8:1],2<7[8:1],6-3[8:1],
{8}2,1,{4}8q5[4:1],6/8,{8}8p3[4:1],8,
{2}1<3[2:1],{4}1,8,
{2}8>6[2:1],8h[4:1],
{4}1b<6[4:1],6>3[4:1],,1>2-4[8:1]*-3<4b[8:1],
1b-7<6[8:1]*<8-6b[8:1],1b,{16}4,5,4,5,4,5,4,5,
{8}3/6,{16}2,1,{8}3,{16}7,8,{8}6,{16}1,8,1,8,1,8,
{8}2-5[8:1],5v3[8:1],2,7,8<5[32:3],4v7[8:1],8,2,
1,{16}6,5,{8}7,{16}2,1,{8}3,{16}5,4,5,4,5,4,
{8}7<4[32:3],3v6[8:1],7,1,8>3[32:3],4qq2[8:1],8,6,
{4}8-5[8:1],{8}8/4v6[8:1],3,{4}2,1-6[8:1],
5/1-4[8:1],{8}1/5v3[8:1],6,{4}7,{8}6,2h[8:1],
4-7[8:1],8-4[8:1],4,8,,8,5-2[8:1],1-5[8:1],
5,1,{16},,,,1,8,2,7,1,8,1,8,
{8}2/7,{16}6,5,{8}6,{16}3,4,{8}3,{16}8,1,8,1,8,1,
{8}7-4[8:1],4v6[8:1],7,2,1>4[32:3],5v2[8:1],1,7,
8,{16}3,4,{8}2,{16}7,8,{8}6,{16}4,5,4,5,4,5,
{8}2>5[32:3],6v3[8:1],2,8,1<6[32:3],5pp7[8:1],1,3,
{4}1-4[8:1],{8}1/5v3[8:1],6,{4}7,8-3[8:1],
4/8-5[8:1],{8}8/4v6[8:1],3,{4}2,{8}3,7h[8:1],
5-2[8:1],1-5[8:1],5,1,,1,4-7[8:1],8-4[8:1],
4,8,{16},,,,8,1,7,2,8,1,8,1,
{4}7/2,{8}7qq3[8:3],3,{4}3,{8}2,1-4[8:1],
,1/5v2[8:1],,5/7,{4}8p4[8:1],4/8,
1b/3b,{8}2pp6[8:3],6,{4}6,{8}7,8-5[8:1],
,8/4v7[8:1],,4/1-4[8:1],,1/5v3[8:1],6,7,
{4}8-5[8:1],{8}8,2,8-2[8:1],6,4-7[8:1]/8-6[8:1],3,
{4}4bx-2[8:1]/8bx-3[8:1],8bx/4bx,{16}6,5,6,5,6,5,6,5,
{4}4/7h[4:1],{8}8,8,{4}6/1,{8}2v5[8:1],5-3[32:3],
2,7,6x-1[8:1],4x,{4}6/3,7x/2x,
5/2h[4:1],{8}1,1,{4}3/8,{8}7v4[8:1],4-6[32:3],
7,2,3x-8[8:1],5x,{4}3/6,2x/7x,
1/6h[4:1],{8}5,5,{4}7/4,{8}3-8[8:1],8-2[32:3],
3,6,7x-4[8:1],1x,{4}7/2,6x/3x,
8/3h[4:1],{8}4,4,{4}2/5,{8}6-1[8:1],1-7[32:3],
6,3,2x-5[8:1],8x,2,7,{4}3x/6x,
4/7h[4:1],{8}8,8,{4}6/1-5[8:1],{8}1,7<4[8:1],
1,7,2x>5[8:1],8x,{4}2,7x/1x,
5/2h[4:1],{8}1,1,{4}3/8-4[8:1],{8}8,2>5[8:1],
8,2,7x<4[8:1],1x,{4}7,2x/8x,
6h[4:1],{8}4,5,{4}6/3>8[8:1],{8}3,5v2[8:1],
1,5,8xq4[8:1],7x,{4}8,3x/5x,
3h[4:1],{8}5,4,{4}3/6<1[8:1],{8}6,4v7[8:1],
8,4,1xp5[8:1],2x,1,3,{4}6x/4x,
{8},3b/6b,{4}1b/8b,{8}3b/6b,1b>4[8:1]/8b<5[8:1],,1b/8b,
,3b/6b,{32}1b/8b,2b/7b,3b/6b,4bV63[32:169]/5bpp2b[32:169],{1},,,,,,,{4},,,{16},,{64},,{96},{24}3,
4,5,{12}6b>3[3:7],
E
