&title=The King's Return
&artist=Zekk
&first=0.02
&des=RanuLin7x
&lv_5=14.5
&des_5=RanuLin7x
&inote_5=
(200){4},,,,{1}Cfh[2:1],
{8}2/6,{16}3,5,{8}4,3/7,{16}6,4,{8}5,{4}6qq7b[4:7]/2qq3[4:7],
{8},,,,,,,,,,,,,,,,,,E8,
E2,E6,E4,{4}C,
{8}7/3,{16}6,4,{8}5,6/2,{16}3,5,{8}4,{4}2-8-5[4:7]/6-4-1[4:7],
,,,,,,,,{1}Cfh[2:1],
{8}6x/2xh[8:1],5,4/7h[8:1],3,2,3,4,5,
6,5,4,3,2,3,4/2h[8:1],5,
6/1h[8:1],5,4/7h[8:1],3,2,3,4,5,
6,5,4,3,2/5h[8:1],3,4/7h[8:1],5,
6/2h[8:1],5,4/8h[8:1],3,2,3,4,5,
6,5,4,3,2/6h[8:1],3,4/7h[8:1],5,
6/3h[8:1],5,4/1h[8:1],3,2,3,4,5,
{4}Ch[4:3],E1/D1,E4/D4,E6/D6,
{16}2bx,4,3,5,{8}2h[8:1],{16}7bx,5,6,4,{8}7h[8:1],{16},,,,2bx,
4,3,5,{8}2h[8:1],{16}7bx,5,6,4,{8}7h[8:1],{16},,,,3bx,
1,2,8,{8}3h[8:1],{16}6bx,8,7,1,{8}6h[8:1],{16},,,,3bx,
1,2,8,{8}3h[8:1],{16}6bx,8,7,1,{8}6h[8:1],,,{4}4/6xh[4:7],
3,2,1,
8,1,2,3,
{16}5bx,4,5bx,3,5bx,2,5bx,1,5bx,8,7bx,6,7bx,5,7bx,4,
{4}8b-4[8:1],4-8[8:1],{2}8w4[8:1],
{4}6xh[4:1],{8}3<5[8:1],4,{4}3,{8}7>1[8:1],8,
7,,,3/6,{4}4-2[8:1]/5-7[8:1],5/4,
8h[8:1]/1h[8:1],{8}8h,6h,{16}7,5,{8}6h,2h,4h,
{16}3,5,{8}4h[16:1],5h[16:1],C,E2/B1,E8/B7,E4/B3,E6/B5,
{4}3h[4:1],{8}6>4[8:1],5,{4}6,{8}2>4[8:1],1,
2,,,8-5[8:1]/1p4[8:1],{2}7/2,
{8}6h[4:1],5,3h[4:1],4,7h[4:1],6,2h[4:1],3,
7h[4:1],8,2h[4:1],1,6h[4:1],7,3h[4:1],2,
,8h[8:1]/1h[8:1],,8h[16:1],6h[16:1],{16}7,5,{8}6h[16:1],2h[16:1],
4h[16:1],{16}3,5,{4}4h[16:1],{2}8-5[8:1]*z4[8:1],
{4}1xh[8:1]/8xh[8:1],{8}1h[16:1],3h[16:1],{16}2,4,{8}3h[16:1],7h[16:1],5h[16:1],
{16}6,4,{8}5h[16:1],1h[16:1],{16}4,3,{8}E8,E2,E6,E4,
1h[8:1]/7h[8:1],,,8/2>4[8:1],1,8/2,,7/5>3[8:1],
6,7/5,,2/8<6[8:1],1,2/8,,3x/5x,
4x/6x,C,B8,B1,E8,E2,B7,B2,
B6,B3,E6,E4,B5,B4,{4}Cf,
5/4-8[8:1],8,{8}5/1,2,7/3,3,
3/5,5,5/3,5,5/1,2,{4}3/7-3[8:1],
1<6[8:1],5-8[8:1],3,{8}1,1,
{16}3xh[8:1]/6xh[8:1],,,4,2h[8:1]/5h[8:1],,,4,{2}3h[4:1]/6h[4:1],
{4}4/5-1[8:1],1,{8}4/8,7,2/6,6,
6/4,4,4/6,4,4/8,7,{4}6/2-6[8:1],
{1}5bw1b[2:1],
Cfh[2:1],
{8}7/3,{16}6,4,{8}5,6/2,{16}3,5,{8}4,{4}3pp2b[4:7]/7pp6[4:7],
{8},,,,,,,,,,,,,,,,,,E2,
E8,E4,E6,{4}C,
{8}2/6,{16}3,5,{8}4,3/7,{16}6,4,{8}5,{4}3-5-8[4:7]/7-1-4[4:7],
,,,,,,,,{1}Cfh[4:3],
{8}3/7h[8:1],4,5,6,7,6,5,4,
3,4,5,6,7,6,5/7h[8:1],4,
{16}1b,8,2b,8,3b,8,4b,8,5b,6,7b,6,8b,6,1b,6,
{2}2bh[4:1],{8}1-5[8:1],8-4[8:1],1xw5[8:1],8x,
{4}A1f,{8}7x-3[8:1],8/6,{4}7,{8}6/2-5[8:1],{16}7,8,
{4}2x/1-3[8:1],{8}1/7-3[8:1],{16}6,5,{4}7bx/4w8[8:1],A4f,
C/B8/B6/B2/B4,{8}2x-6[8:1],1/3,{4}2,{8}3/7-4[8:1],{16}2,1,
{4}7x/8-6[8:1],{8}8/2-6[8:1],{16}3,4,{4}2bx/5w1[8:1],A5f,
3x/7x,2/8-4[8:1],{8}8/2-6[8:1],1,2/8-6-4[16:3],1,
{4}8/2,{8}1-5[8:1],1,1/7-3[8:1],8,7/1-3-5[16:3],8,
{4}1/7,{8}6-1[8:1],5,{4}6,{8}3-8[8:1],4,
{4}3,{8}7-2[8:1],6,{4}7,{8}3-6[8:1],2,
{4}3/Cfh[1:2],E7,E3,E7,
E3,E7,E3,E7,
{2}E3,{32}1bx/8bx,7/2,{16}6/3,{32},,,,4bx/5bx,6/3,{16}7/2,{32},,,,1b-5[8:1]/8b-4[8:1],
2/7,3/6,4/5,,,,,{4}1x/8x,{2}Ch[4:1],
{4}3bx/7bx,2/8-4[8:1],{8}8/2-6[8:1],1,2/8-6-4[16:3],1,
{4}8/2,{8}1-5[8:1],1,1/7-3[8:1],8,7/1-3-5[16:3],8,
{2}1/7,C/B8/B7/B6/B5/B4/B3/B2/B1,
{16}7bx,1,7,8,7bx,6,7bx,5,7bx,4,7,3,7bx,2,7bx,1,
{4}7bx,{16},,,,,,,,E7,B6,B5,E5,
,,,,,,,,,,,,E3,B3,B4,E5,
,,,,,,,,,,,,E7,B7,B8,E1,
,,,,,,,,,,,,E3,B2,B1,E1,
,,,,,,B3,B4,B5,B6,B7,B8,B1,B2,{8}B3,
{12}7bx,1,1,8b,2,2,6b,4,4,5b,3,3,
{2}C,{6}3h[12:1],7h[12:1],1h[12:1],
5h[12:1],3h[12:1],7h[12:1],1h[12:1],{12}5h[12:1],Cf,{24},,,,{8}2/5h[8:1],
3,4/7h[8:1],5,6/2h[8:1],5,4/8h[8:1],3,
7/4h[8:1],6,5/2h[8:1],4,3/7h[8:1],4,5/1h[8:1],6,
2/5h[8:1],3,4/7h[8:1],5,6/2h[8:1],5,4/8h[8:1],3,
6/1h[8:1],7,8/3h[8:1],1,2/6h[8:1],1,8/4h[8:1],7,
3/8h[8:1],2,1/6h[8:1],8,7/3h[8:1],8,1/5h[8:1],2,
7/4h[8:1],6,5/2h[8:1],4,3/7h[8:1],4,5/1h[8:1],6,
2/5h[8:1],3,4/7h[8:1],5,6/2h[8:1],5,4/8h[8:1],3,
{4}Cfh[1:1],E3,E7,E3,
E7,{8}1bx<8q2pp4[4:5]/8bx>1p7qq5[4:5],1b/8b,{2}8b/1b,
{1},{32}8-4[8:1]/1-5[8:1],
7/2,6/3,4/5,,,,,{4}1x>4[8:1]/8x<5[8:1],{2}1bx/8bx,
{16}6/5-7[8:1],4,3,2,{4}5bx/1x-5[8:1],1/5,{8}8/4,3,
{4}1/2q6[8:1],{8}2/7xp3[8:1],8,7/1x-5[8:1],2,{4}1/6x,
{16}6x/2b,3/7,4/8,5/1,6b,7,8,1,2/6b,3/7,4/8,5/1,{4}6b/2b,
{16}7b/3x,6/2,5/1,4/8,3b,2,1,8,7/3b,6/2,5/1,4/8,{4}7b/3b,
{32}7bx/8bx,1x/6x,{16}2x/5x,{32},,,,3bx/4bx,5x/2x,{16}6x/1x,{32},,,,7bx/8bx,1x/6x,{16}2x/5x,{32},,,,3bx/4bx,5x/2x,{16}6x/1x,,,8bx,
7,1b,6,8b,7,3b,4,2b,5,1b,6,8b,7,{8}Ch[8:1],
,,{4}1bp4b[1:2]/8b-5b[1:2],
E
