&title=ネリと琥珀糖
&artist=sasakure.UK
&first=-0.03
&des=fullower × ruriblue
&lv_6=14
&inote_6=(170)
{8},,,
{8}3,4,7,6,5,3/4,3/4h[4:1],{16}B4,B5,E6,,{8}7,8,1/5,1/5,,
{8}6,5,2,3,4,6/5,6/5h[4:1],{16}B5,B4,E4,,{8}2,1,8/4,8/4,,
{8}1,2,8,7,6,3/5,3/5h[4:1],{16}B4,B6,A7,,{8}8,1,2/6,3/7,4/8,
{8}1h[4:1]/5h[4:1],,,7h[4:1]/3h[4:1],,,5h[4:1]/2h[4:1],,,6h[4:1]/4h[4:1],,,4/3h[4:1],,2-8-6-4[8:7]*-7-5-3[8:7],,,,,,,,,,
{8}7-3[4:1],,,,1,,,
{16}
E7,E6,3/E5,,2p4>8[2:1],,2,,4h[4:1],,,,,,,,7q3[16:3],,,,6/7,,5,,4<8[4:1],,,,,,1,,,,
8,,7,,6,,E4,E3,E2/7,,6-2[8:1],,1,,3h[4:1]/6,,,,2,,1,,8p4[8:1]*v3[8:1],,,,8,,,,
E3,E2,7/E1,,6qq5<8[2:1],,6,,5h[4:1],,,,,,,,2q8[4:1],,,,8/2,,7,,6q4[4:1],,,,2,,2,,,,
2/6,,3,,4,,5,,3/7,,8,,1-7-3-5[4:3]/5-3-7-1[4:3],,,,,,,,,,,,,,,,,,,,
3/4,,3/4h[8:4],,E4,B5,A6,,7,,8,,1p8^1[4:3]/5p4^5[4:3],,,,,,,,,,,,,,,,,,,,
6/5,,6/5h[2:1],,E6,B4,E3,,1,,8,,7p6^7[4:3]/3p2^3[4:3],,,,,,,,,,,,,,,,,,,,
{8}
2h[4:1]/E4,B4,B5,E6,1h[4:1]/E4,B4,B5,E6,8h[4:1]/E4,B4,B5,E6,7h[4:1]/E4,B4,B5,E6,
6hx[4:1]/E8,B8,B1,E2,5h[4:1]/E8,B8,B1,E2,4h[4:1]/E8,B8,B1,E2,3h[4:1]/E8,B8,B1,E2,
{16}
3b,4,5-2[8:1],,2,,5/8,7,6,,1h[8:1],,
6b,5,4-7[8:1],,7,,4/1,2,3,,8h[8:1],,
2b,3,4-1[8:1],,1,,4/7,6,5,,8h[8:1],,
7b,6,5-8[8:1],,8,,5/2,3,4,,
1h[8:1],,2b,3,4,,2h[4:1],,3b,4,5,,3h[4:1],,4b,5,6,,4h[4:1],,5b,6,7,,5h[4:1],,4b,3,2,,
6h[4:1],,5b,4,3,,7h[4:1],,6b,5,4,,8h[4:1],,7b,6,5,,1h,,,,,,
{16}
7/8,1,2,3,4/5,,6q3[4:1],,7,,6/8,,,,6<1[16:3],5,4,,
2,3,4>1[16:3],5,6,,8,7,6<1[16:3],5,4,,1,2,3,4,5,,
3-8[8:1],,5-8[8:1],,3,,5,,,,3,4,5h[8:1],,
3,2,1-5b[4:1],8,7,,3,2,1,8,7,,,,
1/2,8,7,6,5/4,,3p7[16:3],,2,,1/3,,,,3>8[16:3],4,5,,
7,6,5<8[16:3],4,3,,1,2,3>8[16:3],4,5,,8,7,6,5,4,,
6-1[8:1],,4-8[8:1],,6,,4,,,,6,5,4h[8:1],,
8,7,6-2b[4:1],5,4,,8,7,6,5,4,,,,
{16}
1V75[4:1]/8,2,3,4,5/1,,3p6[16:3],,2,,1h[8:1],,,,2-7[16:3],3,4,,
8,7,6-1[16:3],5,4,,2,3,4-8[16:3],5,6,,7,6,5,4,3,,
7-3[8:1],,4<2[4:1],,7,,4,,,,6,5,4,,
2,1,3,8,2h[8:1],,6pp6b[4:1],4,7,5,6x,,,,
{16}
5,4,3,2,1b/8b,,3/7,,2,8,1bh[4:1],,3,,7,,2bh[4:1],,4,,8,,3hb[4:1],,5,,1,,4b,,3/7,,6,4,5bh[4:1],,7,,3,,6bh[4:1],,8,,4,,7bh[4:1],,1,,5,,
8s4[4:1],,,,,,,,,,,,8s4[4:1],,,,,,,,,,,,4b/8b,,4b/8b,,,,
{16}
E3,E4,6/E5,,7q5<1[2:1],,7,,5h[4:1],,,,,,,,2p6[16:3],,,,3/2,,4,,5>1[4:1],,,,,,8,,,,
1,,2,,3,,E6,E7,E8/2,,3-7[8:1],,8,,6h[4:1]/3,,,,7,,8,,1q5[8:1]*-4[8:1],,,,1,,,,
E7,E8,2/E1,,3pp4>1[2:1],,3,,4h[4:1],,,,,,,,7V51[4:1],,,,1/7,,2,,3V15[4:1],,,,7,,7,,,,
6/2,,7,,8,,1,,7/3,,4,,5h[8:3],,,,,,
4,,3/5,,2/5,,1/5,,8/5,,7/5,,6/5,,
5x/E7,B7,5x/B8,E1,5x/B1,B2,5x/E3,A2,5bx/D2,A1,5bx/D1,A8,5bx/D8,A7,5bxs1b[16:5]/D7,
{16},,,,,,,,,,,,,,,,,
{16}
5h[8:1]/4h[8:1],,,,6h[16:6],,7h[16:5],,,,,,6,,A7,E8,B8,E1,A1,,A5,B5,C,B1,A1,,A4,B4,C,B3,A3,,
7xh[8:1]/8xh[8:1],,,,6h[16:7],,5h[16:4],,,,,,5,,E5,B4,B3,B2,E2,,E6,B6,B7,E8,8x<4[8:2],,,,,,,,
1h[8:1],,,,3h[16:6],,2h[16:5],,,,,,3,,D4,A4,D5,A5,D6,,A2,B2,C,B6,A6,,A8,B8,C,B3,A3,,
1xs5[1:1]*z5[1:1],,,,,,,,,,,,,,,,,,,,,,,,
C,,,,
{16}
1/8>4[4:1],7,6,5,4/8,,6p2[16:3],,7,,8h[8:1],,,,8v3[16:3],7,6,,
8,7,6v1[16:3],5,4,,6,5,4v7[16:3],3,2,,4,3,2,1,8,,
1v4[8:1],,6>8[4:1],,1,,6,,,,5,4,3h[8:1],,
5,4,3-7b[4:1],2,1,,5,4,3,2,1,,,,
8/1-6-4[4:1],2,3,4,5/1,,3q8[16:3],,2,,1h[8:1],,,,1v6[16:3],2,3,,
1,2,3v8[16:3],4,5,,3,4,5v2[16:3],6,7,,5,6,7,8,1,,
7-3[8:1],,2<4[4:1],,7,,2,,,,8,7,6,,
3,5,1,7,3h[8:1],,7pp3b[16:5]*pp4b[16:5],1,5,3,Cf,,,,,,,,
{8}6,5,2,3,4,6,6,{16}3,4,2-5[8:1],,{8}1,6-1[8:1]/2,7,6/4,,
{8}3,4,7,6,5,3,3,{16}6,5,7-4[8:1],,{8}8,3-6[8:1]/7,2,3/5,,
{8}7,6,1,2,3,7,7,{16}1,8,2h[4:1],,{8}8,6h[4:1],8,3,8,
{8}6h[4:1]/1h[4:1],,,7h[4:1]/3h[4:1],,,5h[4:1]/2h[4:1],,,6h[4:1]/4h[4:1],,,
{16}3p6^7p2^3[4:6]*p6^7p2^3[4:6]/C,,,,,,,,,,,,
