&title=ダイダイダイダイダイキライ
&artist=初音ミク VS 重音テト
&first=0
&des=フロー太
&lv_5=13+
&inote_5=(260)
{1},,
{8},,,,,,
(130)
{8}5h[4:1],,3,,2h[4:1],,5,,
{8}4h[4:1],,6,,7h[4:1],,4,,
{8}2h[4:1],,1,,2h[8:1],8,1h[8:1],7,
{8}6h[4:1],,3,,2h[8:1],4,1-5b[8:1]/5,{16}2,6,
{16}1b,,,,6,5,6,,74,,53,,2h[8:1]/7-4b[8:1],,6,,
{16}8,8,,,3,4,3,,25,,46,,2h[8:1]/7-4b[8:1],,6,,
{16}8,8,,,2V86b[8:1]/4,,3,,5,5,,,2V86b[8:1]/4,,3,,5,5,,,
{16}5,4,5,4,{32}2bhx[16:1],,,,6bhx[16:1],,,,
{128}3-8b[32:3],7-4[32:3],,,,,,,,,,,,,,,{8},{16}37,,,,
{16}2/8>4[8:1],,7,,8b/6,,,,6/5<1[8:1],,4,,
{16}5b/3,,,,2,,31,,4,8,4,,2/E6,,8/E4,,
{16}2,5,3,4,1,,2x,5x,3x,4x,1x,,6,4,6,4,
{16}3h[8:1]/7,,5,,1/2<4<2[2:1],,3h[8:5],,2,,,,,,,,
{16},,{8}5/6h[8:1],4,5/6h[8:1],3,5<8[8:1]/6,2h[8:1],,
{16},,{8}4/3h[8:1],5,4/3h[8:1],6,4>1[8:1]/3,7h[8:1],,
{16},,3,4,3,,5/4h[8:1],,7,,8h[8:1]/3,,5,,4,,
{16}6,4,7,5,7>4[4:1],,56,,4>7b[4:1]/7,,,,,,,,
{2}3q5[2:1],C,
{2}6pp5[2:1],B2,
{16}3h[8:3],,,5,,,6,,7h[8:3],,,4,,,3,,
{16}2h[8:3],,,1,,,8,,37,,26,,
{128}1>4b[8:1]`5-1[8:1],,,,,,,,,,,,,,,,{8},
{16}1b/5b,Cf,,,4,,5,3,4<7[8:1],,2,,41,,8,,15,,6h[8:1],,8>3[8:1],,1,7,8b,,6,,
{16}4,5,4,,36,,36,,27,,27,,1,8,2,7,
{32}E2,E3,E4,E5,E6,E7,E8,E1,
{16}Chf[4:1],,,,,,,,2x/8x,,6,4,5xqq4b[16:2],,,,
{16}7bV58[16:3]/B5f,,,,7x/5x,,,,3x,,4,7,4-2[12:1],6,4-1[12:1],5,
{8}4x-8[12:1],4xpp6[12:1],,,3h[16:2],{16}5,1bx,,,46,,
{16}2bx-5[12:1]/8bx,,,,{16}2x/5xqq3^8[16:3],,,,7,,6,,5-7[12:1],,7-3[12:1],,
{16}3x-8[12:1],,8x-4[12:1],,4x,,2x,,1h[16:2],,4,2bx,8pp1b[8:1],,6x,,
{16}7b-4-6[16:3]/B8f,,,,7x/8x,,,,2x,,1,5,1>3b[12:1],6,1-4[12:1],7,
{16}1x-5b[12:1],,1xqq7[12:1],,,,,,4h[8:1],,6,2bx,,,34,,
{16}8bx-3[12:1]/1bx,,,,8/3<6q2[16:3],,,,1,,4,,
{16}3-8[12:1],,4/6-1b[12:1],,3-5[16:1],,6-3[12:1],,3,,6,,2h[16:2],,4,1bx,,1,2x/8x,,
{4}7-3b[12:1]/3-8b[12:1],{16}7b/3b/Cf,,,7x<4[12:1],8x,,,{32}8bx/7bx,1,2,3,,,,,,,
{8}8>2[12:1],6,4<6[8:1],5,3-7[8:1],1,2<8[8:1],1,
{8}6-3[12:1],7,,{16},2,1,,5,4,,6,6,2,
{16}8-5-2b[16:3],,,,8x/4-7-3[16:3],,,,4x,,8<5[8:1]*V64[8:1],,1x/2x,,,,
{16},,{128}3qq4b[4:1],4pp4[4:1],,,,,,,{16},52,,,,,,,,7,5,7,5,
{16}8-4[12:1]/4,,3>1b[12:1],,8x,,3x,,5<7[12:1],,8-4b[12:1],,5x,,8x,,
{8}7^2b[8:1],7,6q3[8:1],6,5,5,84,{16}2,1,
{16}3,8,4,7,3,6,5,7,6h[8:1]/4,,2,,{16}3qq2^4b[8:3],,5pp4<2[16:10],,
{1},
{2}7p6[2:1]/4h[2:1],,5h[2:1]/4>6[2:1],{16},,,,,,5,5,4,,2,2,8,,
{16}37,,2-6[16:2],,18,,2hx[8:1],,,,
{16}4h[8:1]/7,,8,,21,,6<2[8:1],,2v4[8:1],,,,,,1x,,
{8}7h[8:1]/5,1,2h[8:1]/4,8,{16}3,1,3,,48,,57,,
{16}6,4,6,,3<8b[6:1],4,3,,6h[8:1],,,,15,,2,,
{32}7bx,B7,,,1b,B1,,,5b,B5,,,{16}3,4,{32}2bx,B2,,,8b,B8,,,4b,B4,,,6x/7x,,,,
{16}12,,3h[8:1]/4,,7,,6,5,6,4,5,4,5<3b[4:1],3,5,3,
{16}5hx[4:1],,,,,,,,7h[16:1],,7h[16:1],,2x,2x,,4,
{16}35,,6,,7pp2[8:3]/1,,3,,B4/B5,,,,,,,,
{16}4h[8:3],,,,{32}E1/B1,A1,,,E7/B6,A6,,,{16}3hx[8:1],,4,25,,6x,7x,8x,
{16}1xV75[32:6],,,,5x,4x,3x,2x,1bx,,,3b/4b,,,5b/7b,,
{16}2V47[4:1],,,,7V52b[4:1],,,,8h[16:1],,8h[16:1],,1x,1x,,8,
{16}72,,56,,1,,4/2h[4:1],,B6/B7,,1,1,,4,4,,
{16}5h[8:3],,,,{32}B8/E8,A8,,,B2/E3,A2,,,{16}6h[8:1],,5,47,,3x,2x,1x,8x/E5,
{16}E6,E7,E8,E1,E2,E3,E4,5bx,,,1b/7b,,,3b/4b,,
{8},,4h[4:7]/B8,,E3,,E6,{16},,7pp6[2:1],,,,,,,,,,,,,,,,
{8},3,2h[2:3]/B5,,E7,,E2,{16},,1<3[2:1],,,,,,,,,,,,,,,,
{4}2-5[8:1],21,2-6[8:1],28,
{4}7-4[8:1],78,7-3[8:1],71,
{4}1s5b[16:3],6,6,{8}45,45,
{1}4b/5b,
{32}1b/Cf,2,3,4,5,6,7,8,1bx/Cf,2,3,4,5,6,7,8,1bx/Cf,2,3,4,5,6,7,8,
{4}1b/6bx<1b[16:1],
{64}2bx,3x,4x,5bhx[64:45],
{4},
{4},{16},,,
{16}1<7[12:1],,1-6[12:1],,
{8}1xp4[12:1],1xpp3[12:1],,,{16}6h[16:2],,5,8bx,3,,46,,
{16}2bx-5[12:1]/8bx,,,,{16}2x/6>3qq1[16:3],,,,8,,6,,4-7[12:1],,7-3b[12:1],,
{16}3x-8[12:1],,8x-5b[12:1],,4x,,2x,,1h[16:2],,4,2bx,8pp1b[8:1],,6x,,
{16}7b-4-6[16:3]/B8f,,,,7x/8x,,,,2x,,1,5,1-5b[12:1],6,1>3b[12:1],7,
{16}1x-4[12:1],,1xqq7[12:1],,,,,,4h[8:1],,8,3bx,6,,17,,
{16}5bxv2[12:1]/3bx,,,,5/3>5[16:3],,,,4,,2,,
{16}8-3[16:1],,1/6-4b[12:1],,8-5[16:1],,6-3b[12:1],,8x,,6x,,2hx[8:1],,4,1bx,,1,2x/8x,,
{4}7-3b[12:1]/3-8b[12:1],{16}7b/3b/Cf,,,7x<4[12:1],8x,,,{32}8bx/7bx,1,2,3,,,,,,,
{8}8>2[12:1],6,4<6[8:1],5,3q7[8:1],1,2qq8[8:1],1,
{8}6>3[12:1],5,,{16},1,8,,6,5,,3,3,7,
{16}1<7-3b[16:3],,,,1x/
6>4-8[16:3],,,,6x,,3q7[8:1]*<6[8:1],,1x/2x,,,,
{16},,{128}3qq4b[4:1],4pp4[4:1],,,,,,,{16},52,,,,,,,,7,3,8,4,
{16}1<6[12:1],,5v2b[12:1],,1x,,5x,,6v1[12:1],,2>5b[12:1],,6x,,2x,,
{8}7^2b[8:1],7,6q3[8:1],6,5,5,48,{16}2,1,
{16}3,8,4,7,3,6,5,7,6h[8:1]/4,,2,,3h[8:1]/5,,7,,
{16}1h[4:1],,,,8h[4:1],,,,1h[8:1],,8h[8:1],,1w5b[12:1],1,1,1,1,
