&title=ÅMARA (大未来電脳)
&artist=sasakure.UK
&first=-0.1
&des=404 Not Found
&des_5=404 Not Found
&des_6=500 Internal Server Error
&lv_5=14.0
&lv_6=14.7
&inote_4=(125){4},
E
&inote_5=(115){4},,,,{48}1b-5[8:11]/8b-4[8:11],
2/7,6/3,5/4,{1},{4},,,{6},{48}8b/1b,
7/2,6/3,5-1[12:13]/4-8[12:13],{12},,,,,,,,,,,,,,,,,{2}2b,
(230){4}3/5,{8}4h[8:1],6h[8:3],{4}3v6[8:1],3,
7/8,8/7,{16}1,2,3,4,5,6,7,8,
{4}1w5[8:1],1,{2}7h[4:1]/3h[2:1],
{4},{8}4/6h[8:1],4,,8/2h[8:1],{4}8,
4/6,{8}5h[8:1],3h[8:3],{4}6v3[8:1],6,
2/1,1/2,{16}8/1x,7,6,5,4,3,2,1,
{4}8w4[8:1],8,{2}6h[2:1]/2h[4:1],
{4},{8}4/3h[8:1],4,,8/7h[8:1],{4}8p2[8:3],
{8}8/6h[2:1],{2},{8}1,1,8<7-4[6:1],
,3h[4:1],,5-1[4:1],,1>5[4:1],2,5<1[4:1],
,1>1[1:1]*>1[1:1],,,,,,,,,,,,,,1/3h[8:3],
1,{4},{8}8,8,1>2-5[6:1],4,6h[4:1],
,4-8[4:1],,8<4[4:1],,4>8[4:1],1,8<8[1:1]*<8[1:1],
{1}8xh[8:1],
{8},,,,,,,8,
1bh[4:1],2h[8:1],,1/2,4bh[4:1],3h[8:1],,3/4,
8b,8b-3[8:1]*-5[8:1],8b,8b,{4},1,
{8}8bh[4:1],7h[8:1],,7/8,5bh[4:1],6h[8:1],,6/5,
1b,1b-6[8:1]*-4b[8:1],1b,1b,,,,B8,
B7,B6,B4,B3,B2,7-2[8:1]/3-6[8:1],,7/3,
,,,7/8,,1,{4}1-5[8:1]/8-4[8:1],
1/8,{8}6/3,6-8[8:1]/3-5[8:1],,6/3,,7/4,
,5h[8:1]/1h[8:1],{16},,,2,{8},6,{16},3v5b[16:159]/7v1[16:159],{8},(115){1},
,,,,{16},,,{64},7bx,
{4},{16},,{64},,,(260)1h,{32},,,{4}7h/8h,
6h/5-1[8:1],4h/5h,{8}2h,{16}3h,4h,3h,4h,{8}3h[8:1],
{4},3h/4-8[8:1],5h/4h,{8}7h,{16}6h,5h,
6h,5h,{8}6h[8:1],{4},7h/8-4[8:1],1h/8h,
{8}3h,{16}1h,2h,1h,2h,{8}1h[8:1],{4},2h/1-5[8:1],
8h/1h,{8}6h,{16}8h,7h,8h,7h,{8}8h[8:1],{4},5h/4-1[8:1],
6h[4:1]/4h,{8}2h,1h[16:1]/8h[16:1],8h[16:1]/1h[16:1],8h[8:1]/1h[8:1],
{4},1h/8-5[8:1],2h[4:1]/8h,{8}6h,4h[16:1]/5h[16:1],
4h[16:1]/5h[16:1],4h[8:1]/5h[8:1],{4},1-4[8:1]/5-8[8:1],5h/1h,
{8}7h/3h,6h[16:1]/7h[16:1],6h[16:1]/7h[16:1],6bxh/7bxh,{16},{64}1bxh,E1,{32},,,,,{64}2bxh,E2,{32},,,,,{64}3bxh,E3,{32},,,,,{64}4bxh,
E4,{32},,,,,{64}5bxh,E5,{32},,,,,{64}6bxh,E6,{32},,,,,{64}7bxh,E7,{32},,,,,{64}8bxh,E8,{96},,,,,,,,,,,,,,,,,(230){12}2,
{48},{16}2h[8:1],,6h[8:1],,3h[8:1],,5<3[48:7],,,,5,,,,A7,
D8,A8,D1,A1,D2,A2,D3,{8},{16}7h[8:1]/5-1[8:1],,,,5/3h[8:1],
,,,2h[8:1]/4-8[8:1],,,,4/6h[8:1],,,,1,,2,,3,
{24},6,{48},,,,,{16}6h[8:1],,,,3h[8:1],,4>6[48:7],,,,4,,,,A2,
D2,A1,D1,A8,D8,A7,D7,{8},{16}6h[8:1]/8-4[8:1],,,,8/2h[8:1],
,,,5,,6,,7s3[48:31],{12},8bh,{8},{24}8bh,{6},{24}8bh,
{6},{24}8bh,{6},{12}1,,1,{4},{12}2,
{16},2,,3,,3,,8<5[8:1]/4>1[8:1],,,,8q4[8:1]/4q8[8:1],,,,4>1[8:1]/8<5[8:1],
,,,4xq8[8:1]/8xq4[8:1],,A1/A5,,8/4,{6},{12}3,6,4,5,
3,6,4,5,3,6,4,5,3,6,4,5,
3,6,4,5,,8,,8,{8},{24}7,{8},{24}7,
{12},6,{24},6,{12},{24}6,{12},{24}3>8[8:1]/7<4[8:1],,,,,,3q7[8:1]/7q3[8:1],,,,,,3>8[8:1]/7<4[8:1],
,,,,,3x/7x,{12},{24}A8/A4,{12},{24}1x,{8},{24}8,,1,,8,,1,,8,
,1,,8,,1,,8,,1,,8,,1,,8,,1,,8,,1,,8,
,1,,8,,1,,8,{48},,,,,{16}1h[48:13],{12},8b,{6},{24}3q8[8:1],{12},{24}8>3[8:1],
{12},5b,{24},6,{12},{24}7,{12},{24}8,{12},7b-4[8:1],{24},4b-1[8:1],{12},{24}1b-5[8:1],{12},{24}5b-8b[8:1],
{3},{12}1h[8:3],{6},{12}8b,{6},{24}6p1[8:1],{12},{24}1<6[8:1],
{12},4b,{24},3,{12},{24}2,{12},{24}1,{12},2b-5[8:1],{24},5b-8[8:1],{12},{24}8b-4[8:1],{12},{24}4b-1b[8:1],
,,,,,,,,,,,2/8h[8:1],{12},2>5qq3[4:1],{24},8,{12},{24}2,{12},{24}8<4[4:1],
,,,,,4>8[4:1],,,,,,8w4[24:5],,,,,,,,,,,,2h[4:1],
,,,,,8h[8:1],{12},1-3[8:1],{6},{12}1/6h[4:1],{24},,,,,,,4pp6[8:1]*-2[8:1],
,,,,,4v1[8:1],,,,,,8,,,,,,E2/B2/B3/E4,{8},A6/E6/E5,
{24},B7/E8,{8},{24}E2,{8},1-3-5-7-1>1>1[0.7774##11.3504],(115){2},
{1},,,,,{4},{8},3b,
{3},(256){24}8h,{12},{24}2-4-6[6:1],
,,,,,2h[4:1],,,,,,,,,,,,3xh,{12},{48}7,{24},{48}6,{24},3/5,
{48},2,{24},{12}1,{24},4h[4:1],,,,,,2-4-6[6:1],,,,,,2h[4:1],{3},{48}7,
{24},{48}6,{24},5/3,{48},2,{24},1,{12},{24}4h[4:1],,,,,,2-4-6[6:1],,,,,,2h[4:1],
{3},{48}7,{24},{48}6,{24},3/5,{48},2,{24},{12}1,{24},4h[4:1],,,,,,2-4-6[6:1],
,,,,,2h[4:1],{3},{48}7,{24},{48}6,{24},3/5,{48},2,{24},1,{12},{24}1xh[4:1],
,,,,,7-1-3[6:1],,,,,,7h[4:1],{3},{48}2,{24},{48}3,{24},4/6,
{48},7,{24},{12}8,{24},1h[4:1],,,,,,7-1-3[6:1],,,,,,7h[4:1],{3},{48}2,
{24},{48}3,{24},4/6,{48},7,{24},8,{12},{24}1h[4:1],,,,,,7-1-3[6:1],,,,,,7h[4:1],
{3},{48}2,{24},{48}3,{24},4/6,{48},7,{24},{12}8,{24},1h[4:1],,,,,,7-1-3[6:1],
,,,,,7h[4:1],{3},{48}2,{24},{48}3,{24},4/6,{48},7,{24},8,{12},{24}1,
(266){6},2/5,2,2/6-4[12:1],2,{12}B7,C,
B3,A1,B1,B5,{6}A5,3,3/7,3,
3/8-6[12:1],3,{12}A1,C,A5,A7,B7,B3,{6}A3,
4/8,4,4/7-5[12:1],4,{12}E1,B1,B2,E8,
C,E4,B6,B5,{6}E5,1/5,1,1/5<7[12:1],
1,{12}B3,B4,B5,B6,B7,B8,B1,B2,{6}8/B3,
(276)8,8/4,8,8/5-3[12:1],8,{12}E6,C,
E2,D8,E8,E4,{6}5/D4,5,5/2,5,
5/1-5[12:1],5,{12}E1,B8,B7,E7,B3,B4,{6}7/E5,
7,7/2<8[12:1],7,{12}D6/A6,A5,E5,B4,B3,E3,
A2/D2,A1,E1,B8,{6}B7,6,6/3,6,
6/1,6,{12}3x,4x,2xh,1x,8x,2x-6[8:1],3x,4x,
(229){16}2bx,{8},{16}4x,{8},5x,{16},6x,{8},{12}7x,,8x,
,1x,,2x,,3x,{16},4x,,5x,{12},{6}6x,
{8}7x,8x,1x,2x,3x,4x,5x,{16}6x,7x,
8x,1x,2x,3x,4x,5x,6x,7x,8x,B1,B2,B3,B4,B5,B6,B7,
B8,A1,A2,A3,A4,A5,A6,A7,A8,1xs5[23.5022##0.1284],{1},,,,,{16},,,{48},(230){6},
{16},,,,,,,,,4,,,,,,,,,,,,,,,,4,
,,,,,,,,,,,,,,,4,
,,,,,,,,,,,,,,,4,
,,,,,,,,,,,,,,,4,
,,,,,,,,,,,,,,,4,
,,,,,,,,,,,,,,,4,
,,,,,,,,,,,,,,,4,
,,,,,,,,,,,,,,,4,
,,,,,,,,,,,,,,,4,
,,,,,,,,,,,,,,,4,
,,,,,,,,,,,,,,,4,
,,,,,,,,,,,,,,,4,
,,,,,,,,,,,,,,,4,
,,,,,,,,,,,,,,,4,
,,,,,,,,,,,,,,,4,
,,,,,,,,,,,,,,,1b/2b,
,,,8b/7b,,,,8b/1bh,
,,,4bw8[48:7],,,,4,,,,2h[8:1],{4},{16}6h[16:9]/A8,
D8,A7,D7,D6,A5,D5,A4,,,,3q4[8:1],,7,
,7,,7,,3/6<1[8:3],,3,,3,,2,,3,,2,
,,,8/2,,2/8w4[8:1],,,,8b,,,,2bh[4:1],,,,5b-8[8:1]*-2[8:1],
,,,5b,,,,1-5[8:1],,,,1/7h[8:1],{4},{16}3h[16:9]/A1,
D2,A2,D3,D4,A4,D5,A5,,,,6p5[8:1],,2,
,2,,2,,6/3>8[8:3],,6,,6,,7,,6,,7,
,,,6/8,,6/8w4[8:1],,,,8b,,,,1b/2b-6[8:1],,,,1b-5[8:1],
,,,8b-4[8:1],,,,7-3[8:1],,,,6/7,,6,
{8},{16}4,3,2,1,E5,B5,B6,E7,,7/8,,1,,1-3[8:1],
,6,,6-8[8:1],,5,,4,,4-2[8:1],,5,,1,,1,
,,,3/8h[8:1],,3,,,,8b-6[8:1]/1b-6[8:1],,,,8b-3[8:1]/1b-3[8:1],,,,8b-6[8:1]/1b-6[8:1],
,,,8b/1b>4[4:1],,,,4-8[16:3],,,,7,,7,
{8},{16}1,2,3,4,E1,B8,B7,E7,,5h[4:1],,3,,3,
,6h[4:1],,2,,2,,7h[4:1],,2,,2,,1h[4:1],,8,
,7,,6,,5>3[8:1]/1<7[8:1],,6/2,,5/1,,,,,,,,7-5[8:1],
,,,7/8-4[8:1],,,,8/6-8[8:1],,5,,6/3-1[8:1],,,,3/7-3[8:1],
,,,7/8-4[8:1],,,,8/2-6[8:1],,,,2/1-5[8:1],,,,1/8<4v6[8:3],
,,,,,2,,2>5v8[8:3],,,,,,7,
,7h[8:3],,,,,,,,3-6[8:1]/7-2[8:1],,,,7-4[8:1]/3-8[8:1],,,,3/7,
,,,3x/7x,,,,5v6[16:5]/4v3[16:5],,,,,,,,,,,,7-2-5[4:1],
,,,5-8-3q7[8:3],,,,,,6xh[8:1],
,,,,,,,1/8,,4/5-8[8:1],,,,1-4[8:1],,,,6-3[8:1],
,,,2<6[4:1],,,,2,,,,,,5h[8:1]/4w8[48:5],
,4,,,,,,6,,7/2h[4:1],,6,,7-3[8:1],,,,7/2-6[8:1],
,,,2/5-1[8:1],,,,4/5-7[8:1],,,,3/5-3-1-7[16:5],,,,5/2h[4:1],
,,,,,,,8>4[8:1]/2-7[8:1],,,,8/2>6[8:1],,,,8-4[8:1],
,,,8,,6,,6h[4:1]/1-5[8:1],,,,1-7[8:1],,,,1-3[8:1],
,,,1-5pp8[8:5],,,,1/5qq2[8:3]*qq2[8:3],,,,,,,,,,,,4-8[16:3]*w8[16:3],
,,,4,,,,,,5-1[16:3]*w1[16:3],
,5,,,,,,3/7,,8w4[16:3]*-4[16:3],,,,8,,,,1w5[16:3]*-5[16:3],
,,,1,,,,(224)8bh[8:1],,1,,2/8-6[8:1],,2,
,8/2-6[8:1],,,,2b,,,,7,,,,1/7-5[8:1],,1,
,7b/1,,1h[8:1],,,,6,,8/6-4[8:1],,8,,6b/8,,8h[8:1],
,,,5,,7/5-3[8:1],,7,,5b/7,,7h[8:1],,,,4,
,4-2[8:1],,,,4b/6-2[8:1],,,,6,,,,5/3-1[8:1],,5,
,3b/5,,5h[8:1],,,,2,,4/2-8[8:1],,4,,2b/4,,4h[8:1],
,,,1,,3/1-7[8:1],,3,,1b/3,,3h[8:1],,,,8,
,6/8pp2[8:1],,,,8b/6qq4[8:1],,,,6,,,,5/7pp1[8:1],,5,
,7b/5,,5h[8:1],,,,6,,4/6pp8[8:1],,4,,6b/4,,4h[8:1],
,,,5,,3/5pp7[8:1],,3,,5b/3,,3h[8:1],,,,4,
,4pp6[8:1],,,,4b/2qq8[8:1],,,,2,,,,1/3pp5[8:1],,1,
,3b/1,,1h[8:1],,,,2,,8/2pp4[8:1],,8,,2b/8,,8h[8:1],
,,,4/6,,6,,(230)3>2-5>4-7<6-1<8-3[16:97]/7-4<5-2>3-8>1-6<7[16:97],
E
&inote_6=(115){4},,,,{16}7p2[16:23],
6h[16:1],5h[16:1],4h[16:1],{8},3h[8:1],,2h[16:1],{16},3h[16:1],,4h[16:1],
,5h[16:1],,6h[16:1],,7h[16:1],,6,5,4,{8}3h[16:1],{16},1h[16:1]/8h[16:1],{8},{16}3p6[4:5],
2h[16:1],1h[16:1],8h[16:1],{8},7h[8:1],,6h[16:1],{16},7h[16:1],,8h[16:1],
,1h[16:1],,2h[16:1],,3,2,1,{2}8b,
(230){4}8/2-4[8:1],{8}2/7,6h[8:1],{4}1-5[8:1],1/7-5[8:1],
7/8-4[8:1],8,{16}1/5,2,3,4,5/1-5[4:1],6,7,8,
{4}1/5-7-1[4:1],1-3-5[4:1],4,7h[4:1],
,{8}2/1,3/8,,2/1,{4}3/7,
1/7-5[8:1],{8}7/2,3h[8:1],{4}8-4[8:1],8/2-4[8:1],
2/1-5[8:1],1,{16}4/8,7,6,5,4/8-4[4:1],3,2,1,
{4}8/4-2-8[4:1],8-6-4[4:1],5,2h[4:1],
,{8}7/8,6/1,,7/8,{4}6/2,
{2}4h[8:3],{8}2,6h[4:1],8,3qq1[8:1],
,3/7h[4:1],,2,,5,4,7-2[2:3],
,7,,,,,,,,,,,,,,8h[8:3],
4,{4},{8}6,2h[4:1],4,,7qq6[8:1],
,7/3h[4:1],,4,,1,8,3-6[8:11],
{1}3h[8:1],
{8},,,,,,,1,
8b,8,7,7,3b/6,3,2,2,
1/7b,7b-4[6:1],6b,6b,{4},8,
{8}1b,1,2,2,6b/3,6,7,7,
2b/8,2b-5[6:1],3b,3b,,,,1-5[32:3],
8-4[32:3],1-3[32:3],8-6[32:3],1-5[32:3],,1w5[32:3],,1,
,,,4v1[8:1],,5/4,{4}6v3[8:1],
6v1[8:1],{8}2,4>1[4:1],,1<6[4:1],,5,
,5,{16}5-2[16:3],{8},{16}7h[16:3],,,,,,7<5q7[16:79]/3>1q3b[16:79],{8},(115){1},
{8},,,,,,,,,,,,,1/8-4[8:19],
{12},{6}2,
,3,,5,,6,
,7,,8-4b[12:1],,1,
,2b,{4},{64},,,{96},(260){64}1h,{32},,,{4}3h[4:1]/8h,
8-6b[8:1],8h/2h,{8}5h,{16}1,2,3-5b[8:1],4,{8}7h[8:1],
{4},3h[4:1]/7h,7h,{8}7h,{16}1,2,
3-6b[8:1],4,{8}8h[8:1],{4},8h/5h[4:1],8h,
{8}8h,{16}1,2,3-7b[8:1],4,{8}6h[8:1],{4},1h[4:1]/6h,
6h,{8}6h,{16}1,2,3-8b[8:1],4,{8}5h[8:1],{4},2h[4:1]/5h,
5h,{8}2h,{16}8,7,6-3b[8:1],5,{8}1h[8:1],
{4},1h/5h[4:1],1h,{8}1h,{16}8,7,
6-2b[8:1],5,{8}3h[8:1],{4},3h/8h[4:1],3h,
{8}3h,{16}8,7,6,5,{8}4bh[16:3],{16},3bh,{8},{16}4bh,{8},{16}5bh[16:3],
{8},6bh,{16},2bh[16:3],{8},{16}1bh,{8},{16}7bh[16:3],{8},8bh,
{12},(230)2,{48},{16}2,,6h[8:1]/3v6[8:1],,3,,4,{6},{24}5h[24:17],{48},,,,,,,,,,,{16}A8,
D8,A7,D7,A6,D6,D5,A4/B4/E4/D4,{8},{16}7,,6,,5,
,4/3-7[8:1],,2,,3,,4,,5/6-2[8:1],,7,,6,,5,
{24},3,{48},,,,,{16}3,,7h[8:1]/2v7[8:1],,2,,4,,,,5h[16:11],,,,A7,
D7,A6,D6,D5,A4,D4,A3/B3/E3,{8},{16}6,,7,,8,
,1/5,,6/2,,7/3,,4/8,{12},7bh/C,{8},{24}2bh/C,{6},{24}6bh/C,
{6},{24}3bh/C,{6},{12}1,,1h[3:1],{8},{24}8,{12},8,
{16},6,,5,,6,,5q1[8:1],,,,4/5p1[8:1],,,,6/5q1[8:1],
,,,5,,4,,5,{6},{12}3,6,4,5,
3,6,4,5,3,6,4,5,3,6,4,5,
3,6,4,5,,8,,8h[8:3],{6},{24}1,{12},{24}1,
{12},2,{24},2,{12},{24}3,{12},{24}3p7[8:1],,,,,,4/3q7[8:1],,,,,,2/3p7[8:1],
,,,,,4,{12},{24}5,{12},{24}4,{12},5,{24},1,,8,,1,,8,
,1,,8,,1,,8,,1,,8,,1,,8,,1,,8,,1,,8,
,1,,8,,1,,8,{48},,,,,{16}1x,{12},7bh[8:3],{24},1,{12},{24}2,{12},{24}3,
{12},4bh[8:3],{24},8,{12},{24}7,{12},{24}6,{12},5bh[8:1],{24},4b,{12},{24}4bh[8:1],{12},{24}5b,
{3},{12}1,{6},{12}2bh[8:3],{24},8,{12},{24}7,{12},{24}6,
{12},5bh[8:3],{24},1,{12},{24}2,{12},{24}3,{12},4bh[8:1],{24},5b,{12},{24}5bh[8:1],{12},{24}4b,
,,,,,,,,,,,8-4[8:1],{12},7,{24},6,{12},{24}5,{12},{24}3/5-1[8:1],
,,,,,1w5[8:1],,,,,,E1/A1/E2,,,,,,,,,,,,7/1,
,,,,,8p7[24:7],{12},8,{6},{12}3,{6},{24}3,{12},{24}4-8[24:25],
,,,,,4pp6b[3:2],,,,,,2qq8b[48:17],{8},,,,,,,6xv8v2v4v6-8-2-4-6[0.7774##11.353],
(115){2},
{1},{4},,{16},B3,
,B4,,B5,,B6,
,B7,,B8,{1},,{4},{16},,,B7,
,B8,,B1,
,B2,,B3,,B4,{8}1b,{3},(256){24}7h,{12},{24}2h[4:1]/7<5b[12:1],
,,,,,,,,,,,3h[4:1],{3},{48}8/4,{24},{48}3/7,{24},6/2-7b[8:1],
{48},1/5,{24},{12}8/4h[8:1],{24},,,,,,,4qq2>3[4:1],,,,,,4h/6h,,,,,,7,
{12},{48}4/8,{24},{48}7/3,{24},6/2-6b[6:1],{48},5/1,{24},{3}8/4h[8:1],{24},4v1>2[4:1],,,,,,6h/4h,
,,,,,7h,{12},{48}4/8,{24},{48}3/7,{24},6/2-5b[6:1],{48},1/5,{24},{12}8/4h[8:1],{24},,,,,,,4q2[4:1],
,,,,,6h/4h,,,,,,7,{12},{48}4/8,{24},{48}3/7,{24},6/2,{48},1/5,{24},{6}8h[8:1]/4h[8:1],
{24},,,,,4v5[8:1]/8v1[8:1],,,,,,4h/8h,,,,,,8xh,{12},{48}5/1,{24},{48}2/6,{24},3/7-4b[6:1],
{48},4/8,{24},{12}5/1h[8:1],{24},,,,,,,1v4<5[4:1],,,,,,8h/1h,,,,,,1,
{12},{48}6/2,{24},{48}7/3,{24},4/8-4b[6:1],{48},5/1,{24},{3}6/2h[8:1],{24},2xq8[4:1],,,,,,5xh[4:1]/2h,
{3},{48}7/5,{24},{48}6/4,{24},3/5,{48},4h[16:1]/2h[16:1],{6},{24}4-8[8:1]/2-6[8:1],,,,,,4h/2h,
,,,,,7h/1h,,,,,,7h/1h,{12},{48}2/4,{24},{48}5/3,{24},6/4,{48},5h[16:1]/7h[16:1],{6},{24}3,
(266){6},4h[6:1]/8h[6:1],,8h[6:1]/4h[6:1],,{12}5,4,
3,2/4,3,2,{6}1,7x,{3}4h[6:1]/5h[6:1],
4h[6:1]/5h[6:1],{12}4,5,6,7/5,6,7,{6}8,
{3}3h[6:1]/2h[6:1],3h[6:1]/2h[6:1],{12}5,4,3/4,3,
2/3,2,1/2,1,{6}8,6h[6:1]/7h[6:1],,6h[6:1]/7h[6:1],
,{12}4,5,5/6,6,6/7,7,8/7,8,{6}1,
(276)2x,1h[6:1]/8h[6:1],,1h[6:1]/8h[6:1],,{12}6/1,5,
4,3/8,4,5,{6}6,4x,{3}4h[6:1]/5h[6:1],
4h[6:1]/5h[6:1],{12}5/2,1,8,7/4,8,1,{6}2/5,
8/1h[3:1],8,8,{12}3/8,4,5,6/1,5,4,
3/8,4,5,6/1,{6}5h[6:1],4,4/5h[6:1],4,
4/5h[6:1],4,{12}7/4,8,1,2/5,1,8,7/4,8,
(229){16}1bx,{8},{16}4,{8},5,{16},6,{8},{12}7,,8,
,1,,2,,3,{16},4,,5,{12},{6}6,
{8}7,8,1,2,3,4,5,{16}6,7,
8,1,2,3,4,5,6,7,8,1,2,3,4,5,6,7,
8,1,2,3,4,5,6,7,8,1s5[23.5044##0.1255],{1},,,,,{16},,,{48},(230){6},
{16},,,,,,,,,4,,,,,,,,,,,,,,,,4,
,,,,,,,,,,,,,,,4,
,,,,,,,,,,,,,,,4,
,,,,,,,,,,,,,,,4,
,,,,,,,,,,,,,,,4,
,,,,,,,,,,,,,,,4,
,,,,,,,,,,,,,,,4,
,,,,,,,,,,,,,,,4,
,,,,,,,,,,,,,,,4,
,,,,,,,,,,,,,,,4,
,,,,,,,,,,,,,,,4,
,,,,,,,,,,,,,,,4,
,,,,,,,,,,,,,,,4,
,,,,,,,,,,,,,,,4,
,,,,,,,,,,,,,,,4,
,,,,,,,,,,,,,,,1b/2b,
,,,8b/7b,,,,8b/1bh,
,,,4-7[4:1],,,,7q5[8:3],,,,3,,5<8[8:3],
,,,A1,D2,A2,D3,A3,D4,A4,,6,,6/5,,6,
,6/7,,6,,6/4,,6,,6/8,,6,,6/5,,6<7-4[8:1],
,,,3h[8:1],,,,,,3bh[8:1]/5bh[8:1],,,,7bh[8:1]/5bh[8:1],,,,5b/3b,
,,,5-2[4:1],,,,2p4[8:3],,,,6,,4>1[8:3],
,,,A8,D8,A7,D7,A6,D6,A5,,3,,3/4,,3,
,3/2,,3,,3/5,,3,,3/1,,3,,3/4,,3>2-5[8:1],
,,,6h[8:1],,,,,,7bh[8:1]/1bh[8:1],,,,3bh[8:1]/1bh[8:1],,,,7bh[4:1]/1bh[4:1],
,,,,,,,8/2,,,,1h[8:1],,8-4[4:1],
,,,4-6-8[4:1],D4,A3,D3,A2,D2,A1,,2x,,3h[8:1]/6h[8:1],,,,6h[8:1]/4h[8:1],
,,,6h[8:1]/5h[8:1],,,,6h[8:1]/7h[8:1],,,,6h[8:1]/8h[8:1],,,,,,8/2,
,1w5[8:1],,,,1b,,,,7b>8v6[4:1],,,,6b-4-2[4:1],
,,,2b-8-6[4:1],,,,5,,,,4h[8:1],,5<8[8:1],
,,,2,3,4,5,6,7,8-4[8:1],,4-6-2[4:1],,8,,2-8[8:1],
,3,,3,,3-6[8:1],,1,,1,,1,,7-2[4:1],,6,
,7/2-5[4:1],,3,,5-1[4:1],,6,,1-3-5[4:1],,8,,5,,6,
,8w4[16:3],,,,8,,,,2h[8:1],,,,7xh[8:1]/1-5[8:1],,,,7xh[8:1]/1-3[8:1],
,,,7xh[8:1]/1-5[8:1],,,,7xh[8:1]/1-3[8:1],,,,6xh[8:1]/1-5[8:1],,,,6xh[8:1]/1-3[8:1],
,,,6xh[8:1]/1-5[8:1],,,,6xh[8:1]/1-3[8:1],,,,1/5xh[8:1],,,,4,
,3,,2,,1/4,,5,,6,,7/4w8[8:1],,,,4,
,,,5w1[8:1],,,,5,,,,5h[8:1]/6h[8:1],,,,,,6/4,
,4/6,,4/2,,2/4,,2/8,,8/2,,8/6,
,8/6,,1,,2,,3,,4/5,,2,,3,,4,
,6-2[8:1]/5-1[8:1],,6/5,,6<1[16:3],,,,3h[8:1],,,,3,,4,
,6/4-2-8[16:3],,,,5/4-6-8[16:3],,6,,4,,3,,4,,2/1,
,3/4,,6/5s1[8:1],,7/8,,5x,,3-6[8:1],,7-2[8:1],,3,,7,
,5h[8:1],,,,6x/3x,7x/2x,8x/1x,,1/8-4[8:1],,7,,8/1-5[8:1],,2,
,1/7<4[8:1],,6,,7/2-6[8:1],,3,,2/8-4[8:1],,7,,8/1,,2,
,7-3[8:1],,,,7/8-4[8:1],,,,8/1-5[8:1],,,,1/2,,2-6[8:1],
,,,2,,7h[8:1],,,,6h[8:1]/3h[4:1],,,,,,8/7-5[8:1],
,1/8-4[8:1],,7,,8,,6h[8:1],,2-4[8:1],,8/1-5[8:1],,2,,1,
,3,,,,7-1[8:1],,,,(224)7b/3-5[8:1],,,,3/8-3[8:1],,7,
,4v7[8:1],,,,4b,,,,2v4[8:1],,,,2/5v7[8:1],,,,5b,
,4,,3,,2/5,,4-7[8:1],,3,,2/4b,,1-7[8:1],
,3,,1,,1>4[8:1],,8,,1b-5[8:1],,6-1[8:1],,1,,6,
,4z8[8:1],,,,4b/7b-3[8:1],,,,7/2,,,,2>5[8:1],,1,
,2b-6[8:1],,7-1[8:1],,2,,7,,3-8[8:1],,4-7[8:1],,3b,,4,
,1,,3>8[8:1],,5,,3-5[8:1],,6b-8[8:1],,3,,6,,1-3[8:1],
,2/5-1[8:1],,,,5b,,,,4-1[8:1],,,,4/8<6[8:1],,8,
,2h[8:1]/8b-5[8:1],,,,1/8-4[8:1],,2,,8>2[8:1],,1,,5b/8b-3[8:1],,6,
,7h[8:1]/8-4[8:1],,,,6/8-3[8:1],,5,,8b-5[8:1],,4,,8,,4,
,4-2[8:1]/8<6[8:1],,,,4b/8b,,,,1/5h[4:1],,,,1,,5/2h[4:1],
,5b,,5,,4/6,,3/7,,2/8,,7/1,,5b/3b,,8/2,
,6/4,,1/8h,,,,(230){32},1,{16},1,{32},1,{16},{32}1,{16},{32}1,{16},1,
{32},1,{16},{32}1,{16},{32}1,{16},1,{32},2,{16},{32}3,{16},{32}4,{16},1,{32},1,{16},{32}1,{16},{32}1,
{16},1,{32},8,{16},{32}7,{16},{32}6,{16},1,{32},1,{16},{32}1,{16},{32}1,{16},1,{32},2,{16},{32}3,
{16},{32}4,{16},1,{32},1,{16},{32}1,{16},{32}1,{16},1,{32},8,{16},{32}7,{16},{32}6,{16},1,
{32},1,{16},{32}1,{16},{32}1,{16},1,{32},8,{16},{32}1,{16},{32}8,{16},1,{32},8,{16},{32}1,{16},{32}8,
{16},2,{32},8,{16},{32}1,{16},{32}8,{16},2,{32},8,{16},{32}1,{16},{32}7,{16},2,{32},8,{16},{32}1,
{16},{32}7,{16},2,{32},8,{16},{32}1,{16},{32}8,{16},2,{32},7,
E
