&title=Daisy TVアニメ「境界の彼方」EDテーマ
&artist=R・O・N
&first=-0.12
&des_1=Æqual
&des_2=Æqual
&des_3=Æqual
&des_4=Æqual
&des_5=Æqual
&lv_5=12+
&des_6=Æqual
&des_7=Æqual
&des=Æqual
&inote_5=(85){4},{8},,4>6[2:1],,,C,
{16},,,,,,4,3,{8}2<8-6>4[2:1],,,7h[8:3],
,,,,6<4[2:1],,,C,
{16},,,,,,5,6,{8}7>1-3<5[2:1],,,2h[8:3],
,,,,{4}6/4>1[8:1],6h[8:1],
{8}7-5[8:1],8,{4}7,3/5<8[8:1],3h[8:1],
{8}2-4[8:1],1,{4}2,{8}6/4>3>2<1<8<7[2:1],,,6h[8:3],
,,,,{4}5<8[8:1]/4>1[8:1],5/4,
{8}1/8,2/7,{4}3/6,3-1<8-4[2:1],{8}B7,E6h[8:3],
{16},,,,,,7,8,{8}7,{16}5,4,,2,{8}1,
8/3,4/7,{4}5/6,6-8>1-5[2:1],{8}B2,E4h[8:3],
{16},,,,,,2,1,{24}2,,,,,3,4,,,,,5,
{8}4w8[8:1],3/5,{4}4,5>2[8:1],{24}5/6,,,,,1,
{12}8v3[8:1],{24}8,7,,,{4}8/5,4<7[8:1],{24}4/3,,,,,8,
{12}1v6[8:1],{24}1,2,,,{4}1/4,6<1[8:1],{24}6/5,,,,,3,
{12}4-8[8:1],{24}4,5,,,{4}4/6,3>8[8:1],{24}3/4,,,,,6,
{12}5-1[8:1],{24}5,4,,,{4}3/5,4>1[8:1],{24}B2/B3,,,,,7,
{12}8q4[8:1],{24}6,5,,,{4}B7/B6,5<8[8:1],{24}B7/B6,,,,,4,
{12}3qq7[16:5],{24}3,4,,,{4}B5/E5,{24},,,,,,6h[8:1],,,,,4,
{12}5<8[8:1],{24}2,1,,,{8}5/2,3,6/4,5h[8:1],{24},,,3,,3,
{12}1<6[8:1],{24}1,4,,,{4}C,{8}4b/2b,3,1,{24}7h[8:1],,5,
,,5,6h[8:1],,,{8}E5,7,8/6,5/1,2/4,3pp7[4:1]*qq7[4:1],
,3b,,,6h[8:3],B5,B3,{24}B1,,7,
{8}8,6/1,2,{24}3qq6[8:3],,4,,,5h[12:5],3,,,{4}E2,
{8},,6/3,5h[8:1]/4h[8:1],{24},,,,,5/4,6/3,,,,,7/2,
{8}8v3>1[8:1]/1v6<8[8:1],4/5,{4}8b/1b,{8}7/3
,6/2,5/1,{32}4x/8-4[8:1],7x,6x,5x,
4-8[8:1],3x,2x,1x,{8}8-3[8:1]*-5[8:1],,,,4v1[8:1]*v7[8:1],2/6,4pp3[24:7],,8h[4:1],,,1,2>5[8:1],{12}3/6<8[12:1],{24}7,2,,,{8}6-2[8:1],
{24}1-5[8:1],,3,{4}6,{8}7,{16}4>5[8:3],6,,5,{8}2h[8:3],
,,,,2/6,3/7,4/8,{32}5x/1xqq4[4:1],2x,3x,4x,
5x,6x,7x,8x,{8}1x/4x-7[8:1]*-1[8:1],,,,8/3,7/2,{32}6x/1xpp6[4:1],8x,7x,6x,
5x,4x,3x,2x,{8}1x/5xh[4:1],,,8,7<4[8:1],{12}6/3>1[12:1],{24}2,7,,,{8}3-7[8:1],
{24}8-4[8:1],,6,{4}3,{8}2,{16}5<4[8:3],3,,4,{8}7h[8:3],
,,,,6/2,1h[8:1],5h[8:1],8h[8:1],
{16}4h[16:3],,,7<2[16:5]*p2[16:5],,,{8}E1h[8:3],{24},,,,,,,,,5,,3-7b[12:1],
{12}7,7w3[12:1],,,,,{4}Cf/B7/B6/B2/B3,{24}3h[8:1],,,,,2,
{12}4-8[12:1],{24}4,6,,,{8}4/8,{16}E7,E6,{8}E5,{16}2,1,,5,{8}6V84[4:1],
1-4b[8:1],6,{4}1x,{16}3,3,4,4,{24}3h[8:1],,,,,3,
{12}1-5[12:1],{24}1,7,,,{8}5/1,{16}4,3,{8}2,{24}6z2[8:1]*-2[8:1],,4,{8}8,6b,
E
