&title=Sterelogue
&artist=VeetaCrush
&first=0
&des=AMH vs BHunterB
&des_5=AMH vs BHunterB
&lv_5=14
&inote_5=(202){4},{1},{4},,,{32}5b/1b-3-6-8[1:1],
2x/6x,3x/7x,4x/8x,{4},,,{16},,{1}8-2-5-7[1:1],
7-1-4-6V82[8:11],
7V13b[2:1],
{4}4/5,4,3,3,
4/6,5,6,5,
5/3,4,3,3,
4/6,5,6,5,
{8}7b/4b,6,5,{16}7,8,,6,{8}5,7h[8:1],1h[8:1],
8,2,1,{16}3,4,,2,{8}1,3h[8:1],5h[8:1],
4,6,5,{16}7,8,,6,{8}5,7h[8:1],1h[8:1],
8,2,1,{16}3,4,,2,{8}1,3h[8:1],6h[8:1],
4,5,4,{16}6,5h[8:1],,3,{8}4h[8:1],6h[8:1],3h[8:1],
5,4,5,{16}2,3h[8:1],,7,{8}6h[8:1],1h[8:1],8h[8:1],
2,6,4,{16}8,7h[8:1],,1,{8}2h[8:1],8w4[8:1],1/7,
{2}8b,{16}4,6,4,6,4,6,4,6,
{4}3b-5[8:1],{8}6,7-4[8:1],,3,{4}2h[4:1],
7b-4[8:1],{8}3,2-5[8:1],,7,{4}8-3[8:1],
2v5-3-8[8:7],{8},,,,7b-4b[8:1],7b,
{16},,,,,,5,3,5,3,5,3,5,3,5,3,
{4}6b-4[8:1],{8}3,2-5[8:1],,6,{4}7h[4:1],
2b-5[8:1],{8}6,7-4[8:1],,2,{4}1h[4:1],
8-4[8:1],{8}2,2,,1-5[8:1],7-3[8:1],1,
{2}7,{4}1-5b[8:1],1b,
7x-3[8:1],{8}7/2,1-5[8:1],,1/6,{4}7h[1:1],
B4/E4,E8/B8,B5/E6,B1/E2,
8b-4[8:1],{8}3/8,2-6[8:1],,7/2,{4}8h[4:5],
{2}Ch[2:1],{16}E2,E3,E4,E5,E6,E7,E8,E1,
{4}E2,{8}7x-5[8:1],7,,2xV48[4:1],3,2,
,,,7h[8:3],,,{4}5h[4:1],
7-4[8:1],{8}2/7,1-4[8:1],,1,{4}6,
{16}3,5,3,5,2,6,2,6,1,7,1,7,8x-4[8:1],8x,8x,8x,
{1}Cf/8bx>8[4:7],
{8},,,,,,3,3,
3-6[4:1],{16},,,,,,,,,,,,5,5,
{2}5,6,
{4}7V51[4:3],,,2V46[4:3],
{2}2,6-1[2:1],
{4}8,7,6,5,
{2}4bh[4:1],{8}3,5,3,5,
{4}3bh[4:1],{8}6-1[8:1],6,,,{4}2bh[4:1],
8,{8}7-4[8:1],7,,,{4}2V48[2:1],
6h[2:1],,,7,
7-4[8:1],{8}1,1-4[8:1],,6,,,5b/E4/B4,
,,6/D3/E3,,,{4}7/E2/B1,
{8}4b/E6/B5,,,3/E7/D7,,,{4}2/E8/B8,
{1}4b-8-4[2:1]/5b-1-5[2:1],
{16}2,3,4,5,6,7,8,1,2,3,4,5,6,7,8,1,
{1}6bx-1-4[4:5]/2bx-5-8b[4:5],
{4},,,3,
{8}4,,,5w1[8:7],,,,,,,,,,,7,
7,
7-5[4:1],,,3-1[4:1],,,,,{4}8V62-4[16:39],
{8},,,,1,8-4b[1.9307##0.1485],
{1}1h[4:5],
{2}
,8bx,
{8}7b-4[8:1],1,7,{16}8-4[8:1],1,{8}2-5[8:1],8,2,7,
2-5[8:1],8,2,{16}1-5[8:1],8,{8}7-4[8:1],1,{4}7,
{8}2b-5[8:1],8,2,{16}1-5[8:1],8,{8}7-4[8:1],1,7,2,
7-4[8:1],1,7,{16}8,1,2,3,5,6,{4}7bh[8:1],
{8}2-6[8:1],8,2,{16}1-5[8:1],8,{8}7-4[8:1],1,{4}7-2b[8:1],
7bv4V68-3[4:5],{8},,,,1,1,
{1}1-4-7v5b[1:1],
{4}5xw1[4:1],,,7b/3b,
{8}7-4[8:1],1-5[8:1],7,1,8-4[8:1],{16}2-5[8:1],3,{8}8/4,2,
6,1/7,3/4,6/2,{16}3,4,3,4,3,4,3,4,
{4}3bh[8:7],B3,C,{8}B7,4bh[8:9],
,,,B4,B5,B6,B7,B8,
{4}B1,{8}3,3h[8:5],,E8,B7,B6,
{4}E6,{8}7,7h[8:5],,E2,B2,B3,
{4}E4,{8}2,2h[8:5],,B8,B7,B6,
{4}B5,7-4[8:1]/3-8[8:1],3/7,{32}5b/1b,2/6,3/7,4/8,,,,,{4}2x-5[8:1],
{8}7/2,8-4[8:1],,1/8,{4}2h[1:1],
E8/B8,E4/B4,B1/E2,B5/E6,
8b-4[8:1],{8}1/8,2-6[8:1],,7/2,{4}8w4b[8:1],
{2}Cf/B8/B4,{16}1,7,1,7,1,7,1,7,
{4}1-5[8:1],{8}1/7,6-3[8:1],,6/1,2V84[8:3],2,
,,,6h[8:3],,,{4}5V38[4:1],
8V25[4:1],{8}7,7h[8:3],,3x,{4}2,
{16}1x,8,1,8,1,8,1,8,1,8,1,8,1,8,1,8,
2x,6,2,6,2,6,2,6,2,6,2,6,2,6,2,6,
1x,7,1,7,1,7,1,7,1,7,1,7,1,7,1,7,
8x,8,8,8,8,8,8,8,8,8,8,8,8,8,8,8,
{4}8bx-5[8:1],8b-3[8:1],8b-4[8:1],8b,
{16}1x,7,1,7,1,6,1,6,1,5,1,5,1,4,1,4,
2x,5,2,5,3,6,3,6,4,7,4,7,3,8,3,8,
2x,7,2,7,5,6,5,6,8x,7,1,6,8,7,1,6,
{4}8b-5[8:1]*-6[8:1],8b-3[8:1]*-2[8:1],8b-4[8:1],8b,
{16}1x,6,1,6,3,4,3,4,2,5,2,5,1,6,1,6,
8x,7,1,6,8,7,1,6,1,8,2,7,1,8,2,7,
2x,1,3,8,7,4,6,5,8x,7,1,6,2,5,3,4,
{4}2bx/5bx-1[8:1],5b/2b-6[8:1],2b/7b-4[8:1],1b/7b,
{16}8x,7,8,7,1,8,1,8,2,1,2,1,3,4,3,4,
1x,7,3,8,4,6,2,8,3,7,4,5,1,7,2,6,
1x,5,2,6,3,7,4,8,3x,7,2,6,1,5,8,4,
{4}3bx-6[8:1]/7bx-2[8:1],7bxv4[8:1]/3bx-8[8:1],7bx/3bx,1bx/5bx,
{32}5bv2[8:1]/1bv6[8:1],2/6,3/7,4/8,,,,,{4}Cf/B5/B8/B1/B4/1bxV36-8[1:3]`5bV72-4[1:3],,,,,,,,,,,,,,,{2}3h[4:1],
3h[4:1],
3h[4:1]/B6,3h[4:1]/B5,
6h[4:1],6h[4:1],
6h[4:1]/B3,6h[4:1]/B4,
{8}3,3,3/5,3,6,6,6/4,6,
2,3/4-1[8:1],6/5-8[8:1],4,5,2,1,8,
7,6/5-8[8:1],3/4-1[8:1],5,4,7,8,1,
2,3/5-8[8:1],6/4-1[8:1],5,4,7,8,1,
2bh[8:3],3,4,5,7h[8:3],6,5,4,
2-5[8:1],8-4[8:1],2,8,1-5[8:1],7-4[8:1],1,7,
2-8[8:1],8-4[8:1],2,6,7-5[8:1],5-1[8:1],7,4,
3-5[8:1],2,6-1[8:1],7,4,5h[4:3],8,1h[2:1],
{4},,{16},,{32}4b/8b,7/3,6/2,5/1,
E
