&title=だっしゅどしんでれら
&artist=中村繪里子 & 清水愛
&first=0.02
&des=uapy
&lv_5=13+
&des_5=uapy
&inote_5=
(160){4},{1},{4},{16}3,
4,,6,{8}5,{16}2,4,
,7,{8}5,{16}4,5,3,6,{4}2h[4:1],{8}7,7h[4:1],
,5,{4}5h[4:1],{8}4,4,3,3h[4:1],
,5,{4}5h[4:1],{8}4,4,6,{16}3,5,
,5,{8}3,4,2,5,5,3,{16}6,4,
,4,{8}6,{16}3,5,2,4,{4}1h[4:1],{8}4,4h[4:1],
,6,{4}6h[4:1],{8}7,7,4,4h[4:1],
,6,{4}6h[4:1],{8}3,3,5,{16}3,4,
,5,{8}4,6,3,{16}5,4,5,4,6,3,6,3,
7b,,,2b/4b,,,{8}6b/5b,{16}3,6,4,5,{4}Cf,
7xh[4:1],{8}5,6/4h[4:1],,5,{4}3/5h[4:1],
2h[4:1],{8}4,3/5h[4:1],,4,{4}6/4h[4:1],
7h[4:1],{8}8,7/1h[4:1],,8,{4}2/8h[4:1],
2h[4:1],8qq7[4:1]*pp1[4:1],,,1h[4:1],
{8}3,2/4h[4:1],,5,{4}6/5h[4:1],
8h[4:1],{8}6,7/5h[4:1],,4,{4}3/4h[4:1],
{16}2,2,,5,{8}4,{16}7,7,,4,{8}5,4/6h[8:1],1,
{16}3,5,,6,{8}4,8,{16}2-5[8:1],1,{8}3,{4}2/8,
{8}4/6h[8:1],2,5/3h[8:1],7,4/6h[8:1],2,5/3h[8:1],7,
4/6h[8:1],2,5/3h[8:1],7,{4}6/4-8[8:1],4x,
{8}7/1h[8:1],5,2/8h[8:1],4,7/1h[8:1],5,2/8h[8:1],4,
{16}3,7,3,7,2,8,2,8,3,7,4,6,3,5,2,4,
{1}1bp7[2:1]*q3[2:1],
{16}6x/5x,,,3x/5x,,,{8}7x/2x,,8,{4}7b/1b,
{8}2,{16}4,3,,,{8}5/3h[4:1],,8,{4}6/4,
{8}7,{16}5,6,,,{8}4/6h[4:1],,1,{4}3/5,
{8}3,{16}5,4,,,{8}7h[4:1],,8,{4}1/7,
{8}6,{16}4,5,,,{8}2h[4:1],,1,{4}8/2,
{8}3,{16}6,5,,,{8}8h[4:1],,1,8/2,7/3,
{1}6bpp6[8:3]/4bqq4[8:3],
{4}4/6-8b[8:1],2,4/6-8b[8:1],2,
{8}1,1,8/2,3,5/4,6,3,7,
{4}8/2-4[8:1],6,8/2-4[8:1],6,
{8}5,5,4,6,2,8,1/7,2,
{4}3/5-3b[8:1],1,3/5-3b[8:1],1,
{8}2,8,7/3,4,{2}5-7[8:1]*-3[8:1],
{8}1,{16}8,2,,6,4,5,{8}2,2,{16}5,3,6,4,
{4}7bh[8:1],5bh[8:1]/3bh[8:1],1b-4b[8:1]/8b-3b[8:1],{8}1b/8b,D4/E4/A4/A3,
6x/5,2,3/4,7,6/5,{16}2,2,{8}3x/4x,8,
6/5,1,3/4,8,6/5,{16}1,1,{8}3x/4x,8,
7/5,1,2/4,8,7/5,{16}1,1,{8}2x/4x,8,
7-4[8:1],7,3-8[8:1],3,6-4[8:1],6,2,2,
5x/3xh[8:1],8,{16}4,6,{8}1,5/3h[8:1],8,{16}4,6,{8}1,
2/8h[8:1],4,{16}7,1,{8}5,2/8h[8:1],4,{16}7,1,{8}5,
3/4,{16}6,5,{8}7,1,8/2,{16}2,4,{8}3,6,
{16}3x,5,4,5,3x,5,4,5,2x,5,2x,6,2x,7,2x,8,
{8}1b,{16}7,5,{8}6,2/8h[8:1],4,{16}7,5,{8}6,8/2,
1/7,{16}2,4,{8}3,7/1h[8:1],5,{16}2,4,{8}3,7/1,
6/5,{16}2,1,{8}3,{16}7,8,{8}6,{16}2,1,{8}4,{16}7,8,
{8}5-1[8:1],5,2-5[8:1],2,7-4[8:1],7,3,3,
1x,{16}7,7,{8}5,6/4,8x,{16}2,2,{8}4,3/5,
1x,{16}8,8,{8}2,7/3,{16}6,4,{8}5,3,8h[8:1],
1b,1b,{16}6,3,5,4,{8}8b,8b,{16}3,6,4,5,
{1}1b>8[2:1],
{16}1h[8:1],,,3h[8:1]/5h[8:1],,,{8}6/4h[8:1],{16}8h[8:1],,,4h[8:1]/6h[8:1],,,{8}3/5h[8:1],
{1}2bp6-3-8-5-2[8:9],
{16},,,,,,,,,,8x,1x,{4}7b/2b,
{8}6h[8:1],4,5/3,{16}6,5,,3,{8}4,1,3/5,
{16}6h[8:1]/5h[8:1],,,4h[8:1]/3h[8:1],,,{8}7x,8/1,2/3,4/5,6/7,
8b>3[8:1]/2b-5[8:1],8b/2b,
E
