&title=MARENOL
&artist=LeaF
&first=1.77
&des=Kattobi 1mg
&lv_5=14+
&inote_5=(140)
{32}
7b/6b,8-2-7[15:11]/5-3-6[15:11],1/4,2/3,,,,,,,,,,,,,
{4}
,,,,
{16}
6b-8[15:1],8v1[15:1],,1-3[15:1],3b,,,,,,,,
8z4b[3:7]/1s5b[3:7],,
8/1,,5/4,,5/4,,5/2,,7/4,,2/3,,7/6,,7/2,,8/4,,7/3,,6/2,,5/1,,5/4,,5/4,,6/3,,6/3,,7/2,,7/2,,8/1,,8/1,,,,
8z4b[4:15]/1s5b[4:15],,B8,B1,B7,B2,B6,B3,B5,B4,E6,E4,E7,E3,E8,E2,B8,B1,B7,B2,B6,B3,B5,B4,E6,E4,E7,E3,E8,E2,
B8,B1,B7,B2,B6,B3,B5,B4,E6,E4,E7,E3,E8,E2,B8,B1,B7,,E6/E4,,,,E7/E3,,,,
8b-5[4:1]/1b-4[4:1],,,,
{4}
,,,
{16}
,,E7,,C,,E3,,5h[17:6]/1b>4[5:1],,,,1/6,7,8,1,2,3,
8b<5[5:1],1,2,3,4/8,3,2,1,8,7,6,5,4,3,2,1,
2-7[10:1]/6-3[10:1],,7-2[10:1]/3-6[10:1],,,,,,,,8-6[10:1]/1-3[10:1],,7/2,,8/1,,,,6/3,,5/4,,
{32}
8b,1,2h[7:1],,,,,,8/1,2,3h[7:1],,,,,,8/2,3,4h[7:1],,,,,,3,2,1,8,7,6,5,4,
{16}
7-1[5:1],,1-6[84#21:1],,7,,
2-5[200#10:1],,2,,,,
2,4,3b,,7,5,6b,,1,4,2b,5,3,6b,4,7,1b,2z6[2:1],2b,,8h[5:3],
A2,E3,B3,B4,C,B8,B7,E7,A6,D6,A5/A7,D5,A4/A7,D4,A3/A7,1x,,1,8,1,,
{64}
8b/1b,7/2,6/3,5h[20:1]/4h[20:1],,,,,3/6,7/2,8h[5:1]/1h[5:1],,,,,,,,,,
{16}
,Ch[10:1],,,,1/5,,,,2/6,,,,3/7,,,,4/8,,,,
{64}
1b,2,3,4,5,6,7,,
{16}
8b,,8,,4,,1-5[20:1],5-1[20:1],,7,1b,,,,,,
2b,,2,,6,,8-4[20:1],4-8[20:1],,1,8b,,,,,,
3,,3,,4,,3,8b,3,7b,3,6b,,,
{32}
3bq6b[5:14]/7bq2b[5:14],8,1,2,3,
4,5,6,7b,8,1,2,3b,4,5,6,7b,8,1,2,3b,4,5,6,7b,8,1,2,3b,4,5,6,7b,8,1,2,3b,4,5,6,7b,8,1,2,3b,4,5,6,7b,8,1,2,3b,4,5,6,7b,8,1,2,3b,4,
,,,
B1,B2,B3,B4,B5,B6,B7,B8,B1,B2,B3,B4,B5,B6,B7,B8,B1,B2,B3,B4,B5,B6,B7,B8,B1,B2,B3,B4,B5,
,,E8/E1/E2/B8/B1/B7/C/B2/E7/B6/B3/E3/E6/B5/E5/B4/E4/A1/A2/A3/A4/A5/A6/A7/A8,,
{16}
,,,E1,,,,E7,,,,E3,,,,8-5[4:15]/1-4[4:15],,,,,,,,
7/2,,,,,,,,7/2,,,,,,,,
{64}
8b,B8,,,,,,,1b,B1,,,,,,,8b,E8,,,,,,,1b,E2,,,,,,,
{16}
7/2,,,,,,,,7/2,,,,
{64}
8b,B8,,,,,,,1b,B1,,,,,,,
{16}
,,8b,,1b,,8b,,,,B8,,B1,,
{64}
E8,E2,B7,B2,B6,B3,E6,E4,
{16}
,,,,5pp1[110#27:10],,,,2-4[80#20:1],5b,1,,2,,3,2,,,,,2,1,2,,
{32}
3,2,1,8,7,6<3[300#5:1],,,,,,,,,,,
5pp8[500#1:1]/4qq1[500#1:1],,,,,,,,,,,,,,,,5,4,5,4,5,4,,,
{16}
6/5,,4/5,,4b/3b,,,E4,B4,B5,E6,,E3,,,,E7,,,,Cf,,,,,,,,
1-6[100#10:1],6-3-8[80#8:1],3,4,8,7,1,,6,,,,,,,,
4-8>3b[62#5:1],5h[20:1],4-8>3[80#4:1],3h[20:1],4-8>3b[110#11:4],5h[20:1],4,3h[20:1],4,,,,,,,,
7-4[10:1],,8-3[10:1],,7V15[10:1],,8,,7,,,,
{32}
2,3,4h[14:6],,,,,,7,6,5h[11:2],,,,,,,,,,
C,,,,
{64}
8b/1b,7/2,6/3/5h[12:17]/4h[9:4],,,,,,,,,,,,,,,,,,,,,,,,,,,,,,3bx,2x,1bx,8x,7bx,6x,,4bx,3x,2bx,1x,8bx,7x,6bx,,4x,3bx,2x,1bx,8x,7bx,6x,,4bx,3x,2bx,1x,8bx,7x,6bx,,4hx[7:3],,,,,,,,,,,,,,,,,,,,,,,,,,,,,,,,
{32}
5,4,6,3,5,4,6,3,5,4,6,3,5,4,,
{64}
,,,5h[2:1]/4h[12:17],,,,,,,,,,,,,,,,,,,,,,,,,,,,,,,,6bx,7x,8bx,1x,2bx,3x,,5bx,6x,7bx,8x,1bx,2x,3bx,,5x,6bx,7x,8bx,1x,2bx,3x,,5bx,6x,7bx,8x,1bx,2x,3bx,,5hx[7:3],,,,,,,,,,,,,,,,,,,,,,,,,,,,,,,,,
{32}
5,4,5,4,5,4,5,4>5[6:5],5,4,5,4,5,4,5,,,,,,,,,,,,,,,,,,,,,,,,,,,,,,,,,,
8h[6:1]/1h[6:1],,,,,,,,1,,,2,,,3q5[100#10:1],,,3,,,,,,,3h[8:1],,,,,,,,
8h[6:1]/1h[6:1],,,,,,,,7,,7,,6,,6,,Cf/B7/B6/B2/B3,,,,Cf,,,,Cf/B7/B6/B2/B3,,,,,,,,
3h[10:1],,,,,5,,,5,,6,,4,,3,,6,,7,E8,B8,B1,E2,,,
E6,B5,B4,E4,,,,5h[11:10],,,,,,,,4-1-6-3[3:1],,3,,2,,,,E4f,,,,E1f,,,,E6f,,,,,,,,
2h[5:1],,,,,,,,1-5[10:1],,8,,1,,8,,1w5[10:1]/Cf,,,,Cf,,,,1,B1,Cf,B6/B5/B4,,,,,,
5h[6:1]/4h[6:1],,,,,,,6-2v8-4[3:1],,5h[20:1],,6h[20:1],,,,Cf,,,,Cf,,,,Cf,
,,,,,3xp2[2:1]/6xq7[2:1],,,,,,,,,,,,,,,,,,,,,,,,,,
{64}
E7,E3,B7/B3,E8/E4,B8/B4/Ch[50:1],E1/B1,E5/B5,E2/E6,,,,,,,,,
{16}
Ch[8:1],,,,4b,,4b,5b,4b,,6b,,3b,,,,
Ch[8:1],,,,1b,,8b,6b,7b,,3b,,2b,,,,Ch[8:1],
{32},,
{16}
4b,,4b,,3b,,2b,,5b,,5b,,6b,,7b/Ch[8:1],,8b,,8b,,1b,,1b,,2b,,2b,,,,
Ch[8:1],,,,7b,,5b,6b,5b,,1b,,2b,,,,
Ch[8:1],,,,8b,,4b,7b,3b,,6b,,2b,,,,5h[8:1]/4h[8:1],,,,,,,,,,,,,,,,
{16}
1-3[50#40:1],1-7[50#40:1],1-4[50#40:1],1-6[50#40:1],1-5[50#40:1],1,1,1,1,1,1,1,1x,1x,1x,1x,
{16}
Ch[50:1],,,,8b,,1b,2b,1b,,8b,,7b,,,,
Ch[8:1],,,,4b,,5b,4b,3b,,4b,,2b,,,,
Ch[8:1]/2b,,2b,,1b,,3b,,4b,,4b,,1b,,
8b,,8b/Ch[8:1],,7b,,7b,,6b,,6b,,5b,,5b,,4b,,
3b/Ch[8:1],,,,6b,,3b,7b,2b,,8b,,1b,,,,
Ch[8:1],,,,5b/4b,,6b,3b,6b,,7b/2b,,8b/1b,,,,
Ch[8:1]/8b,,7b,,6b,,1b,,2b,,3b,,4b,,1b,,
Ch[8:1]/1b,,7b/2b,,7b/2b,,6b/3b,,6b/3b,,5b/4b,,5b/4b,,,,
Ch[8:1],,,,1p8[5:35],,,,1,,7,,3,,,,
Ch[8:1],,,,8/1,,,,7/2,,6/3,,5/4,,,,
Ch[8:1],
{32}
,,,,,,1,2,3/4,,,2,3,5/4,,,,,3,4,5/6,,,,,4,5,6/7,,,
Ch[8:1],,,,,,,,8,7,6h[30:1]/5h[30:1],,,,,,7,6,5h[30:1]/4h[30:1],,,,,,6,5,4h[30:1]/3h[30:1],,,,,,
Ch[8:1]/1h[1:1],,,,,,,,,,,,,,,,6,,,,4,,,,5h[7:3],,,,,,,,,
Ch[8:1],,,,,,,8h[4:1],,,,,,,,,6,,,3,,,,1h[5:3],,,,,,,,,
Ch[8:1],,,,,,,,,,,,,,,5-8[45#15:1],,,,6,,,,7,,,,8,,,,1,,,,,,,,5,,,,,,,,,,,,,,,,5v4[3:1],
,,,
{8}
,5h[2:1],,,,2,7h[2:1],3h[2:1],,,,8v2[100#5:1],,2<2[90#5:2],8,,,,,,,,
7-3[10:1],8-4[10:1],,1-5[10:1],,2-6[10:1],,,,7<7[2:5]/1<1<7[2:5],,
{16}
E4,,,,,E5,,,,E6,,,,,E7,,,,E8,,,,,E1,,,,E2,,,,,E3,,,,,,,,
B7h[11:15],,8-5[28#40:1],,A8,,A1,,A2h[7:6],,,,,,,,,,,,,
{32}
,,,D3,A3,D4,A4,
