&title=面影橋
&artist=胁田润,神田康弘
&first=0
&des=Phoshydriodi
&lv_5=12+
&inote_5=(125.8)
{1},
{1}1,
{16}3h[16:3]/5h[8:1],,,,,,6h[4:1],,4h[16:3],,,,,,7,,
{16}5h[4:1],,,,4h[4:1],,,,3-5[8:1],,,,5,,,,
{16}6h[16:3]/4h[8:1],,,,,,3h[4:1],,5h[16:3],,,,,,2,,
{16}4h[4:1],,,,5h[4:1],,,,6-4[8:1],,,,4bpp7[1:1],,,,
{16}3,,,,3,,,,3,,,,3,,,,
{16}3,,,,2pp5[1:1]/8,,,,8,,,,8,,,,
{16}8,,,,8,,,,8,,,,7/5-8[8:1],,,,
{16}2-5[8:1],,,,7-3[8:1],,,,4-8[8:1],,,,1,,,,
{16}2^4[8:1]/6,,,,5-2[8:1],,,,6^8[8:1],,,,1-6[8:1],,,,
{16}2,,,,3/5,,6,4,7-1[8:1],,5,,5,,,,
{16}3/7^5[8:1],,,,4-7[8:1],,,,3^1[8:1],,,,8-3[8:1],,,,
{16}7,,,,4-6[8:1],6,,,2v4[8:1],,1,,8,,,,
{16}2^4[8:1]/6,,,,5-2[8:1],,,,6-1[8:1],,,,1^7[8:1],,,,
{16}2,,,,6^4[8:1],4,,,3qq1[8:1],,,,5,,,,
{16}3/7,,,,4/6,,3,5,2,,1h[8:1]/7h[8:1],,,,7,5,
{16}6V83[4:1],,4,,3-6[8:1],,2h[8:1],,,,1,,8,7,6,,
{16}4h[4:1],,3,,5h[4:1],,6,,2h[4:1],,1,,7h[4:1],,8,,
{16}1,,2h[4:1],,3,,4pp7[8:3],,,,,,,,,,
{16}8v3[8:1],,1,,2V47[4:1],,1V38[4:1],,,,,,,,6,,
{16}1/5-8[8:1],,,,4-1[8:1],4,,,8,,,6,2,,8z4[4:1],4,
{16},,,,2^4[8:1],,1,,5,,7,7h[16:3],,,5,6,
{16}4,,3,,2h[8:1],,4,3,5^2[8:1],,6,,7,,8,,
{16}1v6[8:1],,8,,7V52[4:1],,8V61[4:1],,,,,,,,3,,
{16}8/4-1[8:1],,,,5-8[8:1],,6,,2v5[8:1],,,,7^5[8:1],,8,,
(127)
{16}4-7[8:1]/7,,3,,2v8[8:1],,1,,2/8-3[8:1],,7,,6^4[8:1],,,,
{16}2/6,,,,1,4,,2/5,3/6-2[8:1],,7,,4^1[8:1]/6,,5,,
{16}4-7[8:1]/6,,5,,2,,1,,8,1/7,,5,4/6,,3/7,,
{16}2/8,,1,7,5h[8:1],,8,2,4h[8:1],,1qq7[8:1],7,5^3[8:1],,1,,
{16},,8,2,4h[8:1],,1,7,5h[8:1],,8pp2[8:1],2,4^6[8:1],,8,,
{16},,1,7,5h[8:1],,8,2,4h[8:1],,1,7,5,,1,,
{16}3V58[4:1],,5-2[8:1],,6,,,,,,3/7,,3,7,3,7,
{16}2/8,,1,7,5h[8:1],,8,2,4h[8:1],,1,7,5,1,3h[8:1],,
{16}5h[8:1],,8,6,4h[8:1],,7,3,5h[8:1],,2,6,4,,1/7,,
{16}2/8,,3,,4/5,,6,5,7h[8:1],,8,,1-5[8:1]/8,,2,,
{16}1V73[4:1]/3,,2,,1/6,,6,,1V35[8:1]*V75[8:1],,,1,,,,,
{16}3/7,,2,8,1,,7,5,6,,4-6[8:1]/5,,3,,2/4,,
{16}1,,7,1,8,,2,4,3,,5-3[8:1],4,6,,7/5,,
{16}8,,2,8,1,,7,5,6,,4-6[8:1],5,3,,2/4,,
{16}1-4[8:1],,7v1[8:1],,1V74[4:1],,7,,,,3,,2,,1,,
{16}2/4,,5,3,7,,1,8,2,,4-6[8:1],3,5,,7,,
{16}7,,4,6,2,,8,1,7,,5-3[8:1],6,4,,2,,
{16}2,,5,3,7,,1,8,2,,4-6[8:1],3,5,,7,,
{16}8-5[8:1],,5V73[4:1],,8V25[4:1],,3V51[4:1],,,,,,,,,,
{16}3-8[8:1]/7,,3,,7-3[8:1],,7,,4-7[8:1],,4,,6-4[8:1],,6,,
(125.8)
{16}8-6[8:1],,8,,5-8[8:1],,5,,1-5[8:1],,1,,4>6[1:1],,4,,
{16},,,,,,,,,,,,4qq8[1:1],,,,
{16}4,,,,,,,,,,,,5V73[4:3],,,,
{16}5,,,,,,,,,,,,1h[16:1],,,,
{16}1/4,,2,4,2,,3,1,3,,2-6[8:1],4,2,,5,,
{16}8,,7,5,7,,6,8,6,,7-3[8:1],5,7,,4,,
{16}1,,2,4,2,,3,1,3,,2-6[8:1],4,2,,5,,
{16}8,,7,5,6,4,5,3,4w8[8:1],,2,,,,,,
{16}8,,7,5,7,,6,8,6,,7-3[8:1],5,7,,4,,
{16}1,,2,4,2,,3^8[8:1],1,3,,3q7[8:1],,,3,,,
{16}8,,2,6,2,,8,4,8,,5h[8:1],,
(125.7)
{16}3h[8:1],,
(106)
{16}1qq4[32:51],,
(108)
{16}2b/6bpp4[2:3],,,,,,,,,,,,,,,,
{1},
E
