&title=Sargasso
&artist=Aoi
&first=0
&des=Hana no Aoi.
&des_5=Hana no Aoi.
&lv_5=14
&inote_5=(175){4},,,,{32}8,
7/1,2qq5[16:27]/6qq1[16:27],5/3,{8}4,{1},{4},,,{16},,,3h[16:3],
,,{8}5h[16:3],{16},6h[16:3],,,7h[16:3],,,8,
1,2,3,5,6,7,8/1,2,3,4,1,2,3,4,5,6,
7b/3h[16:3],,,1h[16:3],,,{8}8h[16:3],{16},7h[16:3],,,5h[16:3],,,6h[4:1],
,,,8h[16:3],,,{8}1h[16:3],{16},2h[16:3],,,{8}4h[8:1],{16}1,8,
7h[8:1],,,1h[8:1]/6h[8:1],,,{8}1h[8:1]/7h[8:1],{16},1h[8:1]/4h[8:1],,,{4}1b/8b,
{16}2h[8:1]/A6/B6f,,,8h[8:1]/B4/B3/D4/E4f,,,{8}6/1h[8:1],{16},7h[8:1],,,2,6,3,5,
{8}4bq6[8:3],,,7,{2}8-4[8:1],
{16}5h[8:1]/3h[8:1],,,5h[8:1]/3h[8:1],,,{8}3/5,{2}2/6pp7[4:1],
{8}4bq6[8:3],,,7,{2}8-4[8:1],
{16}5h[8:1]/3h[8:1],,,5h[8:1]/3h[8:1],,,{8}3/5,{2}6/2-5v3[16:3],
{8}8h[8:1],{16}4,7h[8:1],,3,{8}6h[8:1],{16}2,5h[8:1],,3,{8}8h[8:1],{16}4,7h[8:1],
,3,{8}6h[8:1],{16}2,5h[8:1],,1,{8}8h[8:1],{16}2,7h[8:1],,3,6,4,
5,4,6,3,4,3,5,5,{24}2b,1,8,6,{48},2b,,3,,4,,{16}7,{8}7bs3[4:1],
,,,,,1/8,7/2,{16}5,5,
{4}4-2[8:1],4-6[8:1],4/8-2[8:1],8-6[8:1],
{2}8b/4bv6[8:1]*v2[8:1],{8}3,7,{16}1,1,1,1,
{2}1-7[8:1]*>4[8:1],{8}5<8[8:1],4,3,2,
A7/D7,A1/D2,{16}5x,3,6,2,{8}8<5[8:1],1,2,3,
{24}A2,D2,A1,D1,A8,D8,A7,D7,A6,D6,{12}A5,{8}7<4[8:1],3,{4}2-6[8:1],
{8}2/8,{16}7,7,,,1,8,2,7,3,6,{4}4>6[4:1],
{2}4b/Cf,{4}4/7-3[8:1],7/2>5[8:1],
{8}2/8,6,{16}4,5,4,5,4x-2[16:1],,,4x-6[16:1],,,{8}4x,
{16}1,7,2,6,{8}3,6,{16}1,7,2,6,{8}3,6,
3/5,2,7-3[8:1]/1-3[8:1],6,{4}1<5[8:1],1/7,
{8}8b,2,{16}6-8[8:1],5,{8}7,6-4[8:1],4,6,1,
{16}2,7,3,6,{8}4h[8:1],{16}6,7,{8}8-4[8:1],1,8/2-6[8:1],3,
{4}2/7>5[4:1],7b/Cf,{8}8,1,{4}2,
{32}3b/8h[8:1],4,{16}5,{32},,3b/8h[8:1],4,{8}5,{32}3b/8h[8:1],4,{16}5,{32},,3b/8h[8:1],4,{8}5,{4}Ch[16:1],
{8}2-6[8:1],5/3,2,{16}7,7,4h[16:3],,,6h[8:1],,2,4,3,
6,5,{8}7,{4}1,{32}2/8,3,4,5,,,8/2,7,6,5,,,2/8,3,4,5,
{16}1,3,1,2,8,1,7,1,8,2,8,1,7,2,8-4[8:1],1,
6,3,,,,,{8}3b/5b,,7b/1b,{4}5b/2b,
{8}B2f/E2/A2,{16}6,5,{8}7,{16}3,4,{8}2,{16}7,8,{8}7-3[8:1],6/1,
{4}7,{16}4,5,3,7,1,8,{8}2,4/6,8/2,
7,{16}3,4,{8}2,{16}6,5,{8}7,{16}2,1,{8}2-6[8:1],3/8,
{4}2,{16}5,4,6,2,8,1,{8}7,5/3,1/7,
{16}2,4,3,6,5,7,2,4,3,6,5,7,1,8,2,2,
7,5,6,3,4,2,7,5,6,3,4,2,8,1,7,7,
2,4,3,5,4,6,5,7,{8}1b,{16}8b/7b,7b/8b,,1b/2b,{8}2b/1b,
{32}3,4,5,6,7,8,1,2,{8}3,3/7-4[8:1],,2,{4}1-5[8:1],
{1}3/1<2[2:1],
{2}6/8>6[8:3],7-3[8:1],
{8}1h[8:1],{16}4,2h[8:1],,5,{8}3,{24}3,4,3,4,3,4,{8}3,2b/1bh[4:1],
,8,{16}1,7,2,6,{8}3,8/7,6,1/2,
3-5[8:1],6,7,{16}8-4[8:1],1,2,3,{8}4,3,1/7h[4:1],
{16},,2,3,8,7,6,5,3,2,1,8,4,5,6,7,
{8}8/2,4/3,1/7,6/5,{16}7-3[8:1],8,,8,{8}7,2v5[8:1],
,2,{24}8,7,6,1,2,3,7-3[8:1],6,5,2-6b[8:1],3,4,{8}7>6[2:5],2b>8b[16:57],
{1},,,,C/1xqq2[4:3],
6bxp7[4:3],
5p3[4:3],
Ch[1:1],
{4}3b,3,3,{8}3,5,
{4}4,4,4,{8}4,5,
{4}2,2,2,{8}2,5,
3,6,4,7,{16}5,4,3,2,1,8,7,6,
{4}5x/4x,4,3,{8}3/4,5/4,
{4}5/6,7,8,{8}7/5,6/4,
{4}5/3,2,1,{8}8/3,4/1,
2/5,3/6,4/7,8/5,1,2,3,4,
{16}5-1[16:1],,,3-8[16:1],,,{8}6-1[16:1],{16},4-8b[16:1],,,,,,,1-5[16:1],
,,7-4[16:1],,,{8}B2f,,E6,E4,E5,
{16}2,6,5,6,1,5,4,5,{24}8b,7,6,4,{48},8b,,1,,2,,{16}5,{8}5b,
1/4,2,5/8,7,{16}1,2,3,4,{4}1-6[8:1]/5-2[8:1],
{1}E5f/E1f/B1/A1/A5/B5,
{4}2-6[8:1],1-5[8:1],8-4[8:1],7-3[8:1],
1b/B7f,{8}8/2,7,6/4,{16}3,5,2,6,{8}8h[16:5],
{16},,6,6,1,8,2,7,3,4,1,8,5,6,3,4,
{8}2,5/2,2,1/2,2/7,{16}1-5[8:1],5,3,7,{8}1,
7-4[8:1],8,7/3-6[8:1],2,3/8qq4[8:3],1,{4}8,
2,{8}1,8,8/2,{16}7,1,6,2,{8}4h[16:5],
{16},,2,2,7,5,1,3,6,8,4,2,7,5,1,3,
{8}7b,{16}2,4,{8}3,7b,{16}1,4,{8}3,{16}7b,1,5,3,
{8}8,{16}1/7,6/2,{8}5/3,1/7,{16}2,6,3,5,{8}4,4/5,
{4}7x/2x-5[8:1],{8}8/2,7,6/4,{16}3,5,2,6,{8}8h[16:5],
{16},,6,6,1,8,2,7,3,4,1,8,5,6,3,4,
{8}2,2/5,2,2/8,2,{16}2,5,3,6,{8}4b-8[8:1],
,4b/7-5[8:1],,7b/1-3[8:1],,1b/4,{16}6,5,6,5,
{8}4/7-3[8:1],7,1-5[8:1],1,{16}5,6,7,8,{8}1,1-5[8:1],
,4,{16}4,3,{8}2,1x-5[8:1],8,1/7,6,
{16}6,5,3,4,7,6,2,3,8,6,1,3,7,5,{8}2b-8<6[4:1],
,5,4,3>1-7[4:1],,6,5,4,
{4}5bx/4bx,{8}3-5[8:1],{16}5,5,{8}3>8[8:1],{16}8,8,{8}3,7,
6<1[8:1],{16}1,1,{8}6-4[8:1],{16}4,4,{8}6,8,7/1,3/4,
5b/6b,{16}2,4,{4}2-8[8:1],5/2-5[8:1],{8}2/7-3[8:1],7,
{16}7<4[8:1]*>2[8:1],,,,,,,3x>8b[8:1]*<6b[8:1],,3x,,3x,,,,,B2/E2,
,,A7,B6,D6,{8}D5,{24}3,4,3,4,,,{8}4/5,{24}6,5,6,
{8}5,5/4,{24}3,4,3,4,,,{8}4/5,5/7,1/8,2/4,
{24}2,4,3,4,,,{8}4/5,{24}7,5,6,{8}5,5/4,{24}2,4,3,4,,,{8}4/5,
{24}4,5,4,5,4,5,4,5,4,5,6,7,8,1,2,{4}3/7s3b[6:1],
{1}7x/2xw6[4:11],
E
