&title=Secret base~君がくれたもの(10 years after Vers.)
&artist=茅野爱衣/户松遥/早见沙织
&first=0
&des=かげはっぴー
&lv_5=13
&inote_5=(66.99999)
{1},
{4},
(67)
{4}2>6[16:3],,7p3[12:2],,
{4}2^5q6^1[8:5],,,,
{4}7<3[16:3],,2q6[12:2],,
{4}8qq3-5-2[8:5],,,,
{4}8^2v4^5[8:5]*^6v4^5[8:5],,,,
{4}5^8q8[8:5]/4-8^3[16:8],,,,
{4}3^6[16:2],7-4[16:2],5^2[16:2],8-4[16:2],
{4}3qq4[16:4],4<7[16:2],{8}1qq8[6:1],1pp2[6:1],,,
{4}6^3[16:2],2-5[16:2],4^7[16:2],1-5[16:2],
{4}6pp5[16:4],5>2[16:2],{8}8pp1[6:1],8qq7[6:1],,,
{4}4q5<3b[8:4],,,,
{4}2-7[16:2],6-3[16:2],1-4[16:2],5-8[16:2],
{4}3-8[16:2],4-8[16:2],2q5[16:4],,
{4}7v1[16:2],3v5[16:2],{8}8-6[12:1],8-2[12:1],,,
{4}5V31[16:4]*pp4[16:8],,,,
{4}7^2[16:2],3^6[16:2],1^6[16:2],5^2[16:2],
{4}8^5[16:2],3^8[16:2],4pp4[16:4],,
{4}2v8[16:2],6v4[16:2],{8}1^3[12:1],1^7[12:1],,,
{4}4-6v7^1[16:8]*qq3[16:4],,,,
{8}1V35[48:7]*V75[48:7],,,,4<8[8:1],2pp3[8:1],,,1<5[8:1],
{8}3qq2[16:2],,,4v2[16:2]*v6[16:2],2V86[16:2],,,
{8}5V71[48:7]*V31[48:7],,,,8qq7[6:1],4qq3[6:1],,,6^1[8:1],
{8}1>5qq5[16:8]*>5pp5[16:8],,,,,,,2-4[12:1]/6-4[12:1],
{8}8v2[12:1]*v6[12:1],,,1^3[12:1]*^7[12:1],5v7[12:1]*v3[12:1],,,
{8}2-8[12:1]/6-8[12:1],2v8[12:1]/6v4[12:1],,,3^1[12:1]/7^1[12:1],3v5[12:1]/7v5[12:1],,,
{4}2qq3[12:2]/6qq7[12:2],,7pp6[12:2]/3pp2[12:2],,
{4}2^5qq6[16:8]/6^1qq2b[16:8],,,,
{24}2^7[12:1],,7q3[12:1],6qq6[6:1],,,,,,,,,
{24}8^3[12:1],,3p7[12:1],5pp4[6:1],,,,,,,,,
{24}3^8[12:1],,8q4[12:1],7qq4[6:1],,,,,,,,,
{24}1^6[12:1],,6p8[8:1],4^1[12:1],,,,,,,,,
{24}7^2[12:1],,2p6[12:1],4qq5[6:1],,,,,,,,,
{24}1^6[12:1],,6q2[12:1],3pp1[6:1],,,,,,,,,
{24}6^1[12:1],,1p5[12:1],2pp7[6:1],,,,,,,,,
{24}6^3[12:1],,8pp4[6:1],,,,{4}6b,
{24}7^4[12:1],,4pp6[12:1],8V24[32:3],,,,,,,,,
{24}8^3[12:1],,3qq1[12:1],6V47[8:1],,,,,,,,,
{24}2^5[12:1],,5qq3[12:1],1V74[8:1],,,,,,,,,
{24}3^8[12:1],,7p1[8:1],4-1[12:1],,,,,,,,,
{24}2^5[12:1],,5qq3[12:1],8V26[8:1],,,,,,,,,
{24}1^6[12:1],,6pp8[12:1],3V14[8:1],,,,,,,,,
{24}7^4[12:1],,4pp6[12:1],3V51[8:1],,,,,,,,,
{24}8<4[12:1]*>4[12:1],,4z8[8:1],,,,8b,,,,,,
{4}7<1[16:4],1V73[16:3],4>6[16:4],5-1[8:1],
{4}5>7[16:4],7V51[16:3],2<4[16:4],3-7[8:1],
{4}3>5[16:4],5V37[16:3],8<2[16:4],1-5[9:1],
{4}1b<1[4:5]*>1[4:5],,,,
{4},,,Ch[4:1],E1f,,,
