&title=Echoes of Memoria
&artist=Ludicin
&first=0
&des=「将来」は奈落の淵へと堕ち、最後の光すら闇に呑まれ、万物は漆黒の闇蝕に覆われた。
&clock_count=4
&lv_6=15
&inote_6=(190)
{1},,
{8}4>5[4:7]/5,,5,,5,,,,4,,4,,,,4,,4>2<5[4:7],,5,,5,,,,2,,2,,,,2,,4>2<8<5[4:7],,5,,5,,,,2,,2,,,,8h[8:1],,4>2<8<6>5[8:13],,5,,6,,6,,2h[8:1],,2,3,4,3,2,1,
{8}4-7<6-1[4:5]/8-3>2-5[4:5],,,,,,,,,,,,,,,,
{8}3/7<5[2:3]*>3[2:3],,,,,,,,,,,,,,,,
{8}4-2<8-3[4:5]/8-6>4-7[4:5],,,,,,,,,,,,,,,,
{8}4/8V24[2:3]*V64[2:3],,,,,,,,,,,,,,,,
{8}6h[1:1]/4h[2:1],,,,,,3,,2h[1:1],,,,4h[2:3],,,,,,3,,5,,7,,1h[2:1],,,,5h[4:1],,,,
{8}3h[1:1]/5h[2:1],,,,,,6,,7h[1:1],,,,5h[2:3],,,,,,6,,6h[16:1],6h[16:1],6h[16:1],6h[16:1],
{16}4,3,2,1,8,7,6,5,
{8}4/3h[16:1],3h[16:1],3h[16:1],3h[16:1],
{8}3b-7[2:7],,,,4h[4:1],,,,5,,,,5h[4:1],,,,6h[16:1],6h[16:1],6-4[4:1],,,,,,4h[4:1],,,,3-7b[8:1],,,,
{8}4/6,,4/6h[8:1],,2/6,6,2/6,,6h[8:1]/8,,6/8,6,5/6,4,2/6,2/6,
{8}5/3,,5/3h[8:1],,7/3,3,7/3,,3h[8:1]/1,,3/1,3,4/3,5,7/3,7h[16:1]/3h[16:1],
{8}1/7,,1/7h[8:1],,3/7,7,3/7,,7h[8:1]/5,,7/5,7,8/7,1,3/7,3h[16:1]/7h[16:1],
{8}8/2,,8/2h[8:1],,6/2,2,6/2,,2h[8:1]/4,,2/4,2,
{24}1/2,8,7,6,5,,3/4,,3/4,,3/4,,
{8}2b/5b-1[8:1],,5/2-4[8:1],2,8-6[8:1],8,1b,,7-3[8:1]/1,7,5>1[8:1],5,7<5[8:1],7,8,1,
{8}2b-6[8:1],,2/8<6[8:1],8,4>2[8:1],4,8b,,2/8-4[8:1],8,3>7[8:1],3,5p7[8:1],5,4,3,
{8}2b/6b-2[8:1],,3-5[8:1]/6,3,1-5[8:1],1,3b-7[8:1],,3/7,6,5-1[8:1],5,1V73[8:1],2,3,4,
{8}5b-3[8:1],,5/7<5[8:1],7,1>3[8:1],1,8b,,
{16}4/8,,,3/5,,,1/7,,
{24}1/7h[16:1],2,3,4/7h[16:1],,,8/2h[16:1],7,6,5/2h[16:1],,,
{8}1b/8b,,2h[8:3]/8,3,5,8,2/6,,2h[8:3]/8,7,6,5,4/6h[8:3],3,2,1,
{8}B4f,,7h[8:3]/1,6,4,1,7/3,,7h[8:3]/1,2,3,4,5/3h[8:3],6,7,8,
{8}A5/B5f,,2h[8:3]/8,3,5,7,1/5,,2h[8:3]/8,7,6,5,4/6h[8:3],3,2,1,
{8}A4/B4f/E5,,7h[8:3]/1,6,4,2,4/8,,7h[8:3]/1,2,3,4,
{16}5/7,4/7,3/7,,2/4,2/5,2/6,,
{8}A4/B4f/E5/E4,,2h[8:1]/1,3,2h[8:1]/4,6,1/7,,2h[8:1]/8,6,1/7h[8:1],3,2h[16:1]/8h[16:1],3/4,1/7,5/6,
{8}E3/E4/B2/B3f/B4,,7h[8:1]/8,6,7h[8:1]/5,3,8/2,,7h[8:1]/1,3,8/2h[8:1],6,7h[16:1]/1h[16:1],6/5,8/2,4/3,
{8}E7/E6/B7/B6f/B5/A6,,2h[8:1]/1,7,2h[8:1]/4,6,1/7,,2h[8:1]/8,5,1/7h[8:1],4,2h[16:1]/8h[16:1],3/5,1/7,4/6,
{8}E3/E4/B2/B3f/B4/A3/D4,,7h[8:1]/8,2,7h[8:1]/5,3,8/2,,7h[8:1]/1,4,8/2h[8:1],5,7h[16:1]/1h[16:1],6/4,8/2,5/3,
{8}E7/E6/B7/B6f/B5/A6/D6/D7/1b-4[8:1],2/8,1,
{32}D6,A6,D7,A7,
{8}D8/E8/A8f,3/5,2>5[8:1]/6,,1/2,8-4[8:1],6/7,
{16}8/2,2,2-8[8:1],,7-3[8:1]/3,,2,,7,,
{32}4x-8[8:1],5,6,7,8,1,2,3,
{16}4b/5b,,
{32}A7,B7,C,B3,
{16}2b-5[8:1],,5,5,2-6[8:1],,6,6,2,,
{32}7<4[8:1],8,1,2,
{16}3,,7/1bh[8:1],,,3/1bh[8:1],,,7/1bh[8:1],,,,
{16}7<4[8:1],3,6,,7/8,,
{32}D4,A3,D3,A2,
{16}D2/E2/A1f/7-4[8:1],,4,4,7-3[8:1],,3,3,7,,2V46[4:1],,1,,2/8,8,8-4[8:1],,1,,2/8<5[8:1],,3,3,
{16}8,,4,,2>5[8:1]/6,,,,
{24}1/2-6[8:1],8,7,
{16}6,,2/8>7[4:1],,,,4/8,,,,8>4[2:1],,1/7,,4b,,5b,,6b,,7b,,
{16}8b-4[8:1],,8,,8,,2>5[8:1],2,1v6[8:1],,2,,1,,3,4,
{32}2h[8:1],,,,7,6,5,4,
{16}2b,,7<4[8:1],7,8v3[8:1],,7,,8,,7h[8:1],,
{16}5,,4/6,,7/3,,2,8hb[8:1]/2,,4,8bh[8:1]/4,,2b>5[8:1],,1,8,2,,6,,7,,8bh[8:1]/E4,,,2bh[8:1]/E6,,,6bh[8:1]/Cf,,,,
{16}7-3[8:1],8,7,,2-4[16:1],,,1-5[16:1]/2,,,1/8,,7b-4[8:1],,6,5,7-1[8:1],,2h[8:1],,7<5[8:1],,3,3,7<4[8:1],,2,2,7<3[8:1],,1,1,
{16}7,,
{32}1x,8,7,6,
{16}5/1,,,4/6,4/6,,2/8,,3/4,,C,,
{32}E8/E4,B3,B7,B2,B6,B1,B5,E1,
{16}E5f,,E7/E3/D7/D3,,1/8,,2/7,,3/6,,4/5,,
{16}3b/7b,,1,,4/6,,8,8/Cf,,2,2/Cf,,6,6/Cf,4,4,2b/6b,,8,,5/3,,1,1/Cf,,7,7/Cf,,3,3/Cf,5,5,2b/6b,,4,,1/7,,5,5/Cf,,3,3/Cf,,7,7/Cf,1,1,3b/7b,,5,,2/8,,4,4x/Cf,4,4,Cf/6x,6,6,Cf/2x,2,2,Cf/8bx,,,,8,,,,8,,,,8,,1,,
(180)
{8}2/7,,2/7,,2/7,,2/7,3,
(175)
{16}4/5,,7,5/6,,,1/8,,45,,2,3/4,,,1/8,,4w8[87.5#16:1]/5w1b[87.5#16:1],,,,,,,,,,,,,,,,2b/7b,2,2,2,
{24}7<1[16:3],6,5,
{16}4h[8:1],,7-3[16:1],,,7<4[16:1],8,,7,8,1h[8:1],,
{16},,6xV47[8:1],4,4,4,6x<7>8>1[8:1],2,2,2,6x,4,4,4,2b/6b,,
{16}8,8,8<5[8:1],8,8,8>3[8:1],8,1,,8-4[16:1],7,,8,1,1h[8:1],,,,5-1[8:1],5,5,5,7,7,7<5[16:1]*>3[16:1],7,7,7,7,,4bh[8:1],,8,8,8-4[8:1],8,8,8,8<5[8:1],,2>5[8:1],,8,,2,,8hb[8:1],,2,2,2-6b[8:1],2,2,2,2>5b[8:1],,8<5b[8:1],,2,,8,,1hb[8:1],,,6h[8:1]/B2,,,4h[8:1]/B8,,Chf[8:1],,,2h[8:1]/B6,,,8h[8:1]/B4,,1,1,1,1,3/7,,,,
{12}1/5,1/5,1/5,3V52[8:1]/7V16[8:1],3/7,3/7,
{16}3-7[16:1]/7-3[16:1],,,,,,
{24}8x/4x,1x/5x,2x/6x,
{16}3xh[8:1]/7xh[8:1],,,2h[8:1]/6h[8:1],,,1/5,,
{12}4<7[8:1]/8>3[8:1],4/8,4/8,,,,
{16}4z8[8:1]/8z4[8:1],,,,,,,,2h[16:3]/6h[16:3],,,,2x-6V48[8:3]/6x-2[8:1],2/6,2/6,,,,,1h[16:1],,,7h[8:1],,
{12}1bs5[16:3],2/6,3b/5b,
{16}1>2>3<4<5<6<7>8b[16:3]/8,,,,,,,,1b-5[8:1],1,1,1,1,,
{24}6,7,8,2-6[8:1],3,4,6,7,8,
{16}1/2,,7,7,,4,5,,3/4h[8:1],,
{24}3,2,1,7-3[8:1],6,5,3,2,1,
{16}7/8,,2,2,,5,4,,7-4[16:1],,,5-1[16:1],,,8b,,7-3[16:1],,,2-5[16:1],,,1b,,
{12}1x,2b/8b,3b/7b,
{16}4b/6b,,,,
{24}3/7,,3/7,,3/7,,1/5,2/6,3/7,4/8,1/5,2/6,
(180)
{16}3b/7b,,,,2v5[16:1],1,3,1,2b,,6,4,7-4[16:1],3,8,2,7b,,1<6[16:1],5,2,,3h[8:1],,5b,,8,7,1-5[16:1],8,2,1,3b,,3,,
{24}7-3[16:1],6,5,
{16}3/4,2,1b,,1,,7<4[16:1],8,8,1,7b,,1,,1-3[16:1],8,8-4[16:1],7,1<2[4:1],,8,,1,,,,8b,,,,7v4[16:1],8,6,8,7b,,3,5,2-5[16:1],6,1,7,2b,,8>3[16:1],4,7,5,6h[8:1],,4b,,1,2,8-4[16:1],1,7,8,6b,,6,,
{24}2-6[16:1],3,4,
{16}5/6,7,8b,,8,,2>5[16:1],1,3,8,2b-6[16:1],,6,6,2b-5[16:1],,8,8,2b,,8,2,8-4[16:1],,3,,3b,,5,,8>3[16:1],7,1,6,8b,,7h[8:1],,5,,6,5,7v4[8:1],1,1,1,7,,1b,,3-8[8:1],5,5,5,3,,5b,,6<1[8:1],,5/7,,
{24}2,3,4,
{16}5,,3/7,,5,6,4/5,,2,,2-6[8:1],8,8,8,2,,4b,,5h[8:1],3,3,,5h[8:1],3,3,,
{24}5h[8:1]/3,2,1,8,7,6,
{16}5/1,,3/7,,3v6[8:1],5,4,5,3,,7,,8v5[8:1],2,1,2,8,3,3,,4/6,,4/6,,2/8,3/7,4/6,,3bh[4:1]/7b,,5,6,
{32}7h[4:1],4,5,6,,8,1,2,
{16}3bV52[8:1],,7,6,5h[16:3]/3>5[16:3],,,1h[16:3],,,,,
{24}4,3,2,1,8,7,
{16}6/4,,2/8,,1b,1b,
{24}1bs5[16:1]*z5[16:1],2/8,3/7,
{16}4/6,,,,7xv4[16:1],8,6,8,7b,,3,5,2-5[16:1],6,1,7,2b,,8>3[16:1],4,7,,6h[8:1],,4b,,1,2,8-4[16:1],1,7,8,6b,,6,,
{24}2-6[16:1],3,4,
{16}6/5,7,8b,,8,,2>5[16:1],1,1,8,2b,,8,,8-6[16:1],1,1-5[16:1],2,8>7[4:1],,1,,8,,,,1b,,,,2v5[16:1],1,3,1,2b,,6,4,7-4[16:1],3,8,2,7b,,1<6[16:1],5,2,4,3h[8:1],,5b,,8,7,1-5[16:1],8,2,1,3b,,3,,
{24}7-3[16:1],6,5,
{16}4/3,2,1b,,1,,7<4[16:1],8,6,1,7b-3[16:1],,3,3,7b-4[16:1],,1,1,7b,,1,7,1-5[16:1],,6,,6b,,4,,1<6[16:1],2,8,3,1b,,2h[8:1],,4,,3,4,2v5[8:1],8,8,8,2,,8b,,6-1[8:1],4,4,4,6,,4b,,3>8[8:1],,4/2,,
{24}7,6,5,
{16}4,,6/2,,4,3,5/4,,7,,7-3[8:1],1,1,1,7,,5b,,4h[8:1],6,6,,4h[8:1],6,6,,
{24}4h[8:1]/6,7,8,1,2,3,
{16}4/8,,6/2,,6v3[8:1],4,5,4,6,,2,,1v4[8:1],7,8,7,1,6,6,,5/3,,5/3,,7/1,6/2,5/3,,6bh[4:1]/2b,,2,,
{32}2h[4:1],5,4,3,,1,8,7,
{16}6b-2[8:1],,3,3,6,4,4,,
{24}1/5-1V73[4:1],6,7,8,1,2,
{16}3/5,,4,4,4,,7/1,,8,8,
{24}8,7/1,6/2,
{16}5/3>5[4:15],,,,,,,,,,,,,,,,,,,,,,,,,,,,4,4,4,4,,,,,,,,,,,,,,,,,,,,,,,,,,,8<5b[16:1],,,,,,,,,,,,,,,,,,,,,,,,,,,,,,,,,,,,,,,,,,,,,,,,,,,,,,,,,,,,,,,,,,,,,,
{16}2qq5[4:3]/7h[2:1],,,,,,,,,,,,,,,,6h[4:3],,,,,,,,,,,,,,,,3h[2:1]/4pp8[4:3],,,,,,,,,,,,,,,,2h[4:3],,,,,,,,,,,,,,,,1h[4:3]/7pp4[4:3],,,,,,,,,,,,,,,,2h[2:1],,,,,,,,3h[2:1],,,,,,,,4h[4:3],,,,,,,,,,,,7qq3[1:1],,,,1h[4:3],,,,,,,,,,,,,,,,1h[2:1],,,,,,4,,4-6[8:1],,,,,,,,2h[2:1],,,,,,5,,5-7[8:1],,,,,,3,,3h[2:1],,,,,,6,,6-8[8:1],,,,,,,,4h[2:1],,,,,,7,,7-1[8:1],,,,,,5,,5h[2:1],,,,,,8,,8-2[8:1],,,,,,,,6h[2:1],,,,,,1,,1-3[8:1],,,,,,7,,7h[2:1],,,,,,2,,2-4[8:1],,,,,,,,8h[2:1],,,,,,3,,3-5[8:1],,,,,,1,,1bh[4:3]/7,,,7,,,7,,7,,,7,,,4/6,,2/8h[4:3],,,2,,,2,,2,,,2,,,3/5,,1/7h[4:3],,,1,,,1,,1,,,1,,,3/5,,2h[4:3]/8,,,8,,,8,,8,,,8,,,4/6,,3/5,,3h[8:3]/5,,,,5,,5h[8:3],,,7,,,7,,4/6,,4/6h[8:3],,,,4,,4h[8:3],,,2,,,2,,4/5,,3,,3,4,,5,4h[8:1],,,2,,,2,,4/5,,6,,6,5,,4,5s1b[8:1],,3-7[8:1],,,,,,6,,,8,6,,1,,6/2,,7,8,7h[4:1],,1,,3,,,5,3,,6,,3/7,,2,1,2h[4:1],,1,8,7,,,5,7,,4,,3/7,,8,1,8-4[8:1],,2,,3,,,1,2>5[8:1]/6,,2,,8<5[8:1],,1,,8/3,2,1,8,4b-7[16:1],,,1,2b-5[16:1],,8,,8b,,4,,6,7,8,1,5b-2[16:1],,,8,7b-4[16:1],,1,,1b,,5,,3/7,2/6,1/5,,8,4,1,5,2,6,3,7,4,8,4,5,3,6,2,7,
{24}1,8,1,8,1,8,1,8,1,8,1,8,1,8,1,8,1,8,1,8,1,8,1,8,
(190)
{1}1b,,
(200)
{1},,
(210)
{16}1,,,,1,,,,1,,,,1,,,,1,,,,1,,,,1,,,,1,,,,2/6,,3/4,,5/6,,1/7,,2/8,,3/5,,1/7,,4/6,,1bs5[4:1]
,,,,7-3b[8:1],,,,,,,,1,1,1,1,1b-6[8:1],,,6,1>4[8:1],,7,,1x-5[8:1],8,,8,1,,6,,
{32}8x-4V61[4:1],7,6,5,,2,3,4,8b,,,,2,,,,
{16}2b,,3,4,3,,2/5,,8b-3[8:1]/1x,,,3,8<5[8:1],,2,,8x-4[8:1],1,,1,8,,3,,
{32}1x-5V38[4:1],2,3,4,,7,6,5,1b,,,,7,,,,
{16}7b,,6,5,6,,7/4,,2b-5[16:1],,,8b-4[16:1],,,1,,3hx[16:3],,,6b-1[16:1],,,4b-8[16:1],,3x,,,7,,,6/4,,3x,4,2,,7,8,6,,1b-6[8:1],,,6,1>4[8:1],,7,,1x-5[8:1],8,,8,1,,6,,
{24}2b/8b,3/7,4/6,
{16}5,,2b/8b,,6,,3x/7x,,2,1,1,8,
{24}5,6,4,
{16}5b-2[8:1],,,2,5<8[8:1],,3,,5x-1[8:1],4,,4,5,,2,,
{32}4x-8V62[4:1],3,2,1,,7,6,5,4b,,,,3,,,,
{16}3b,,8,6,7,,4/2,,4b-7[8:1]/5,,,7,4>1[8:1],,6,,4x-8[8:1],5,,5,4,,7,,
{32}5x-1V37[4:1],6,7,8,,2,3,4,5b,,,,6,,,,
{16}6b,,1,3,2,,7/5,,6b-1[16:1],,,4b-8[16:1],,,5,,7hx[8:1],,,2b-5[16:1],,,8b-4[16:1],,7x,,,3,,,2/8,,7x,5,6,,1,3,2,,5b/4,,4b/5,,3/4b,,5b/6,,2/4b,,5b/7,,1/3b,,8/6b,,
{32}2b,3,4,5,,8b,7,6,5,4,,,1b,2,3,4,5x,,7b,8,1,2,3,4,
{16}5b/Cf,,,,3x,4,2,,5/6,,8,1,8x-4[8:1],,3,,7/8,,6,,
{24}3x,5,3,
{16}4-8[8:1],,8V62[4:1],,1,,2x-5[8:1],,,,4,,
{24}3,6,4,
{16}6x,5,7,,3/4,,1,8,1x-5[8:1],,6,,1/2,,3,,
{24}6x,4,6,
{16}5-1[16:1],6,5,7-4[16:1],5,,,7,,,
{24}2b,3,4,5,6,7,
{16}8x/2b>5[16:1],,,8b-4[16:1],,,1hx[8:1],,,,,7b<4[16:1],,,1b-5[16:1],,2x,,,8,,,8,,2x/6x,,3/4,,1/8,,5/7,,8b-3[8:1],,,3,8<5[8:1],,2,,8x-4[8:1],1,,1,8,,3,,
{24}7b/1b,6/2,5/3,
{16}4,,7b/1b,,3,,6x/2x,,7,8,8,1,
{24}4,3,5,
{16}4b<7[8:1],,8,,
{24}8-4[8:1],1,2,
{16}3,,8x/1x,,2,,2/6,,3/5,,
{24}6x,5,7,
{16}6-2[8:1],,8<5[8:1],,6,,8,,1,,3/4,,
{24}5,4,6,
{16}5b>2[8:1],,1,,
{24}1-5[8:1],8,7,
{16}6,,1x/8x,,7,,7/3,,4/6,,
{24}3x,4,2,
{16}3-7[8:1],,1>4[8:1],,3,,1x,,8,,5/6-3[8:1],4,3,2,1b-4[16:1],,,8b-5[16:1],,,2,,2hx[8:1],,,3b-6[16:1],,,2b-7[16:1],,1x,,,5,,,3/7,,1x/5x,,,1,,,1,,1x,3,1,8,2,4,2,8,3x,5,3,8,4,6,4,8,
{32}7b/1x,6,5,4,,1b,2,3,4,5,,,7b,6,5,4,3x,,1b,8,7,6,5,4,
{16}3b/Cf,,
{24}1,8,1,
{16}8b-4[8:1],,8,,3-8[8:1],,3,,7x,,7h[8:1],,5,6,4,5,3x>8[8:1],,
{24}4/6,,,3/8,7,6,
{16}5,,2x/6x,,4/7,,1/2,,3/7,,
{24}5x,6,4,
{16}5,,2/8-4[8:1],,2>5[8:1],,8x,,2,,6,,
{24}6,7,8,
{16}1x/2xv5[8:1],,3,4,2<4[24:5],,8,,8hx[4:1],,,,
{24}3,2,1,8,7,6,
{16}5b-2[16:1],,,8b-4[16:1],,,1,,1b-5[16:1],,,4b<7[16:1],,,1,,2x,8,1,3,1,5,2,6,3x,7,4,8,2,2,2,2,2b>5[8:1],,1,8,2,,6h[8:1],,8x,7,1,8,3>8[8:1]/5<8[8:1],,4,,3x/5x,,,,2/6,,4,5,,3,4,,
{24}2,3,2,3,2,3,
{16}1b-6[8:1],,,6,1>4[8:1],,4,,
{24}4x-8V26[2:1]/1x,5,6,
{16}7,,7,,6,,5x,,,5,,,5,,5x,7,6,8,7h[8:1],,1,,8b-3[8:1]/2x,,,3,8<5[8:1],,5,,
{24}5x-1V73[2:1]/8x,4,3,
{16}2,,2,,3,,4x,,,4,,,4h[16:1],2,,3h[16:1],1,,2,1,1,8,2b-4[16:1],,,8b-6[16:1],,,1,,1b-5[16:1],,,7b<4[16:1],,,2,,3b>8[16:1],,,7b-3[16:1],,,3,,2b>5[16:1],,,6b-2[16:1],,,7,,8b,,3/4b,,1/8b,,5/6b,,2/4b,,1/8b,,5/7b,,4b/5,,
{32}3b,2,1,8,,5b,6,7,8,1,,,4b,3,2,1,8x,,6b,5,4,3,2,1,
{16}8b/Cf,,,,
{16}6x,5,7,,4/3,,1,8,1x-5[8:1],,6,,2/1,,3,,
{24}6x,4,6,
{16}5-1[8:1],,1V37[4:1],,8,,7x-4b[8:1],,,,5,,
{24}6,3,5,
{16}3x,4,2,,6/5,,8,1,8x-4[8:1],,3,,8/7,,6,,
{24}3x,5,3,
{16}4-8b[16:1],3,4,2>5[16:1],4,,,2,,,
{24}7b,6,5,4,3,2,
{16}1x/7b<4b[16:1],,,1b-5[16:1],,,8h[8:1],,,,,2b>5b[16:1],,,8b-4[16:1],,7x,,,1,,,1,,7x/3x,,6/5,,8/1,,4/2,,1b-6[8:1],,,6,1>4[8:1],,7,,1x-5b[8:1],8,,8,1,,6,,
{24}2b/8b,3/7,4/6,
{16}5,,2b/8b,,6,,3x/7x,,2,1,1,8,
{24}5,6,4,
{16}8b-3[8:1],,,3,8<5[8:1],,5,,
{24}5x-1V73b[2:1]/8x,4,3,
{16}2,,2,,3,,4x,,,4,,,4,,4x,2,3,1,2h[8:1],,8,,1b-6[8:1]/7x,,,6,1>4[8:1],,4,,
{24}4x-8V26b[2:1]/1x,5,6,
{16}7,,7,,6,,5x,,,5,,,5h[16:1],7,,6h[16:1],8,,7,8,8,1,7b-5[16:1],,,1b-3b[16:1],,,8,,8b-4b[16:1],,,2b>5[16:1],,,7,,6b<1b[16:1],,,2b-6[16:1],,,6,,7b<4b[16:1],,,3b-7[16:1],,,2,,1b,,6/5b,,8/1b,,4/3b,,7/5b,,8/1b,,4/2b,,5b/4,,
{32}6b,7,8,1,,4b,3,2,1,8,,,5b,6,7,8,1,,3b,4,5,6,7,8,
{16}1b/Cf,,A6/A3/A4/A5/D6/D5/D4/E5/E6/E4/B4/B3/B5/B6,,
{16}2qq5[4:3]/7h[4:3],,,,,,,,,,,,,,7,,7b,,3,2b/4b,,6,5b/7b,,1,,2/8,,3/7,,4/6,,3b/7b,,2,3b/1b,,7,6b/8b,,4,5,4,,6,5,6,,4b/5b,,3,4b/2b,,6,5b/7b,,3,4,3,,5,4,5,,
(220)
{16}6qq1b[4:3]/3h[4:3],,,,,,,,,,,,,,3,,3b,,7,6b/8b,,2,1b/3b,,5,,6/4,,7/3,,8/2,,7b/3b,,6,7b/5b,,3,2b/4b,,8,1,8,,2,1,2,,8b/1b,,7,8b/6b,,2,1b/3b,,7,8,7,,1,8,1,8,
(230)
{8}1b>4[8:1],8,7,6<1[8:1],5,4,3<6[8:1],2,1h[16:1],1h[16:1],1b,3/7,5/6,3/4,1/8,2/7,
{8}8b<5[8:1],1,2,3>8[8:1],4,5,6>3[8:1],7,8h[16:1],8h[16:1],8b,6/2,4/3,6/5,8/1,7/2,
{16}3x,4,3,6x,5,6,2x,2,7x,8,7,2x,1,2,6x,6,2x,4,3,7x,5,6,1x,8,1x,3,2,8x,6,7,4x,5,
{12}4x,4,8,3,3,7,2,2,6,1,1,5,4/8,4/8,4/8,2q4[8:3]/6q8[8:3],2/6,2/6,,,,,,,
{16}2bv5[8:1]/6b-1[8:1],,1,,2/6,,,,4,8,3,7,2,6,1,5,8,7,5,6,4,5,3,4,2,3,1,8,2,7,3,6,
{16}4/8-4[16:1],,,2-5[16:1]/8,,,2/6,,7,8,6,,7v4[8:1],1,1,1,7,,3,,3/5,,5,,
{16}2,1,3,,2v5[8:1],8,8,8,2,,6,,6/4,,4,,6,5,7,,1,8,1,,
{12}3x,4,2,8x,6,7,1x,3,2,6x,5,7,
{24}1,2,3,5,6,7,2-6[8:1],3,4,6,7,8,
{16}1/2,,8,,8h[8:1],,
{32}5,4,3,2,
{12}1/7b,7,7,5b,5,5,3b,3,3,
{32}8x/1x,7,6,5,4h[8:1],,,,
{16}2,4,3,5,4,6,5,7,2,1,3,8,4,7,5,6,1,3,2,2,7,5,6,6,1,8,1,1,6,5,7,7,
{16}1,1,4,3,5,4,6,5,7,6,8,1,7,2,6,3,
{16}5/1-5[16:1],,,7-4[16:1]/1,,,7/3,,3,,3,,5/6,,8,,
{12}2,4,2,6,4,6,1,4,1,7,4,7,
{16}2/8-4[8:1],2,2,2,8,,3,,3>8[8:1]/5,5,5,5,3,7,6,5,
{12}4b,,6,5b/7b,,3,2b/4b,,6,4b/7b,,3,
{32}2b/5b,6,7,8,,4b,3,2,1,,,,
{24}1/8,,,1bs5[8:1]/8bz4[8:1],2/7,3/6,4/5,,,,,,,,,
{8}2-5[8:1]/6,2,2/6-1[8:1],6,3-8[8:1]/6,3,3/7-4[8:1],7,1-5[8:1]/7,1,1/5,
{16}6,7,8/2-5[8:1],,3,4,2,,6,,
{24}7<4[8:1]/4h[8:1],8,1,2,,,4-8[8:1]/7,3,2,1,,,1,,,
{16}1,2,3,4,5,6,
{8}7-3[8:1]/1,7,1-5[8:1]/7,1,1/6-2[8:1],6,4/6,4,4/5,1/2,4/5,7/8,
{16}5/6,,,4/5,,,3/4,,
{12}3/4,5,6,7/1,2,3,4/5,6,7,8/1,1/8,1/8,
{24}2/7,,,3,4,3,5,,,1/8,,,6,5,6,4,,,1/8,,,4,5,3,
{16}4b,,2,2/4b,,6,4b/6,,8b/Cf,,2/6,,8,8,8,8,
{16}2,4,3,5,4,6,5,7,1,8,2,7,3,6,4,5,
{16}7b,5,7,5,1b,5,1,5,3b,5,3,5,
{32}7,8,1,2,3,4,
{16}5,7,7,5,6,2,2,4,3,5,4,6,3,5,,4/5,,
{32}1,2,3,4,,7,6,5,4,,,,
{16}2/6,,2/6,,3/4,,1/7,,4/6,,
{16}3,5,1,7,4,6,2,8,1-5[8:1],3,7,4,1x,,6,,
{16}6,4,8,2,5,3,7,1,8-4[8:1],6,2,5,8x,,3,,
{16}7,6,2,1,6,5,1,8,4,5,1,2,5,6,2,3,
{32}8/7,6,5,4,,2/1,3,4,5,,,,8,1,8,1,
{24}8,7,6,5,4,3,2hb[8:1]/6hb[8:1],,,
{32},1b/5b,4b/8b,3b/7b,
{1}2bpp3>6pp3[4:33]`6bpp7<2pp7b[4:33],,,,,,,,
{4},,,4h[4:37]/5h[4:37],
