&title=Florence
&artist=BEMANI Sound Team "TATSUYA"
&first=0.045
&des=zppz4
&lv_5=14+
&des_5=
&inote_5=
(270){4},{1},{4},,{16},,,E5,
E4,E3,,,,,{8}E2,{16},,,E7,E6,E5,,,{8}B2/E3,
B6,E5/B4,B8,B2,E1,{16}E8,E7,{8}E6,
{16},,,E5,,,,,E4,E3,{8}E2,E7,E6,
E5,E4,E3,E2,E1,E8,{16}B2,B3,{8}B4,
{16},,,E6/B5,,,,,B6,B7,{8}B8,,E3,
E7,E2,E8,E4,E6,C,{16}E8,E7,{8}E6,
{16},,E2,E3,{4}E4,{16}5xw1[4:3],E6/E5,{8}E7/E4,,,,,,,,,,,(135){4}6<3>6[8:5],
4,5,4,
3>6<3[8:5],4,5,4,
5-8>5[8:5],6,7,8,
4-8>2v3[8:5],5,6,7,
(270)5/B4,5,6/B3,6,
7/B2,7,8/B1,8,
4/B8,4,3/B7,3,
2/B6,2,1/B5,1,
{8}5,5,4,4,3,3,2,2,
1,1,8,8,7,7,6,6,
{16}5b,4,3,2,1,8,7,6,5,4,3,2,1,8,7,6,
{32}5/1b,2,3,4,5,6,7,8,1,2,3,4,5,6,7,8,1,2,3,4,5,6,7,8,1,2,3,4,5,6,7,8,
(135){1}1xh[4:3],
(67.5){64}8bqq1[16:3],7x,{32}6x,{64}1b,8x,{32}7x,{64}2b-6[16:1]*-6[16:1],1x,{32}8x,{64}3b,2x,{32}1x,,,,,{8}A2f,{32}5,4,3,2,5,6,7,8,4,3,2,1,6,7,8,1,
{64}4bqq5[16:3],3x,{32}2x,{64}5b,4x,{32}3x,{64}6b-2[16:1]*-2[16:1],5x,{32}4x,{64}7b,6x,{32}5x,,,,,{8}A6f,{32}1,8,7,6,1,2,3,4,8,7,6,5,2,3,4,5,
{64}8bx,7,{32}6,{64}1bx,2,{32}3,{64}7bx,6,{32}5,{64}2bx,3,{32}4,{64}7x,8,{32}7,1,6,2,5,3,4,2x,1,3,8,4,7,5,6,{64}8x,7,{32}8,6,1,5,2,4,3,
(270){4}3/5,3/5,4/2,4/2,
3/1,3/1,2/8,2/8,
{8}2,5,3,6,2,7,1,8,
{12}1x,2x,3x,2x,3x,4x,3x,4x,5x,4x,5x,6x,
(67.5){64}3bqq8[16:3],2x,{32}1x,{64}7b,8x,{32}1x,{64}4b<7[16:1]*<7[16:1],3x,{32}2x,{64}7b,8x,{32}1x,,,,,{8}A4f,{32}1,2,3,4,1,8,7,6,2,3,4,5,8,7,6,5,
{64}2bpp5[16:3],3x,{32}4x,{64}6b,5x,{32}4x,{64}1b<6[16:1]*<6[16:1],2x,{32}3x,{64}6b,5x,{32}4x,,,,,{8}A1f,{32}4,3,2,1,6,7,8,1,5,4,3,2,5,6,7,8,
{64}3bx,2,{32}1,{64}6bx,7,{32}8,{64}4bx,3,{32}2,{64}5bx,6,{32}7,{64}3x,4,{32}3,5,2,6,1,7,8,6x,5,7,4,8,3,1,2,{64}4x,3,{32}4,2,5,1,6,8,7,
(270){4}7/1,7/1,8/6,8/6,
7/5,7/5,6/4,6/4,
{8}6,1,7,2,6,3,5,4,
{12}5x,6x,7x,6x,7x,8x,7x,8x,1x,8x,1x,2x,
(135){4}3xh[4:3],B1/E2,E8/B7,E6/B5,
6h[4:3],E8/B8,E2/B2,E4/B4,
4h[4:3],6h,7h,8h,
{1}1w5[2:1],
(270){4}8/B1,8,7/B2,7,
6/B3,6,5/B4,5,
4/B8,4,3/B7,3,
2/B6,2,1/B5,1,
{8}8,8,1,1,2,2,3,3,
4,4,5,5,6,6,7,7,
{16}8b,1,2,3,4,5,6,7,8,1,2,3,4,5,6,7,
{32}8/4b,3,2,1,8,7,6,5,4,3,2,1,8,7,6,5,4,3,2,1,8,7,6,5,4,3,2,1,8,7,6,5,
(135){2}4xh[4:1],(270){8}5/4,6,2,8<5[8:1],
{32},,,,8/5,4,3,2,,,,,,,,,{8}1>4[8:1],8,7,6<1[8:1],
5,4,3,2,1,7,8,7<4[8:1],
{32},,,,7/4,3,2,1,,,,,,,,,{8}8-3[8:1],7,6,5-8[8:1],
4,3,2,1,8,6,7,6>3[8:1],
{32},,,,6/3,2,1,8,,,,,{8}7,3,7,4,7,
5,7,6,7,5b,4,3,2b/6bx,
1,8,7b/3bx,6,5,4b/8bx,3,2,
1bx/5bx,8x/4x,7x/3x,6x/2x,5,3,6,4>1[8:1],
{32},,,,4/1,8,7,6,,,,,,,,,{8}5<8[8:1],4,3,2>5[8:1],
1,8,7,6,5,3,4,3>8[8:1],
{32},,,,3/8,7,6,5,,,,,,,,,{8}4<5-7[8:1],3,2,1>2-4[8:1],
8,7,6,5,4,2,3,2<7[8:1],
{32},,,,2/7,6,5,4,,,,,{8}3,6,3,7,3,
8,3,1,3,2,3,4,5,
6x/3,4,5,6,7x/4,5,6,7,
8x/5,6,7,8,(135){4}5/1-5-1[8:13]*-5-1[8:13],1,
8,8,7,7,
6,6,4-8-4[8:13]*-8-4[8:13],4,
3,3,2,2,
1,1,(270)1-5[8:1],6-1[8:1],
3-6[8:1],7-3[8:1],1-4[8:1],6-1[8:1],
5-2[8:1],8-4[8:1],1-6[8:1],5q8[8:3],
{2}4,{8}3,1,2,8,
1,7,8,6,8b,5h[16:1],8,5h[16:1],
8,5h[16:1],8,5h[16:1],8x-6[8:1],5h[16:1],8x,5h[16:1],
8x-2[8:1],5h[16:1],8x,5h[16:1],8bx,5h[16:1],8,5h[16:1],
7b,5h[16:1],7,5h[16:1],{16}6b,7,8,1,2,3,4,5,
6/E5f/D5,E4,E3f/D3,E2,E1f/D1,E8,E7f/D7,E6,(135){2}E5/B5/B4,
(67.5){64}8,1,8,1,8,1,8,1,7,2,7,2,7,2,7,2,6,5,4,3,2,1,8,7,6,5,4,3,2,1,8,7,6/3,2,1,8,7,6,5/2,1,8,7,6,5,4/1,8,7,6,5b/2b,6/3,7/4,8/5,1/6,2/7,{32}8bh[64:55]/A3f/B3/E4,{4},,,{16},{32},{64}1/7,
6/2,5/3,4,
E
