&title=パラレリズム恋心
&artist=ナユタン星人
&first=0.19
&des=InuMaru
&lv_5=13
&inote_1=(156){8}
E2,,E3,,E4,4x/7x,8x/3x,1x/2x,1b-6[4:7]/2b-5[4:3],{1},{4},,Ch[1:1],{1},{4}4xpp4[3:1]*qq4[3:1],,,,{8}6,6h[4:1],,5h[4:1],,4h[4:1],,3,3qq3[4:1],,3pp3[3:1],,,,7,7,7,4qq5[3:1]/5pp4[3:1],6/3,5/4,,,,,1b/8b,2x/7x,1xpp4[4:1]/8xqq5[4:1],1b/8b,,,,Cf,,1^1[1:1],,C,,C,,C,,C,,C,,C,,C,,8xV63[4:1],8x,2x-7[5:1],,2x,,,1/8,8/1>5[4:1]*>5[4:1],,1x/5x-8[5:1]*q2[5:1],,,,,,{24}1x^1[3:1],,,,,,,E2,E3,E4,E5,E6,E7,E8,E1,{8},,,Cf/B1/B2/B3/B4/B5/B6/B7/B8,,,,E4/E8,,,,1xs5[4:1],,5x-2[3:1],6x-1[24:5],,,,,1/2,8/3,7/4,6/5,Cf,,,,{4}7b-2[1:2]/6,6,5,5,4,4,3,3,3x-8[4:1],3x,6x-1[4:1],6x,4xpp4[4:1]*qq4[4:1],4bw8[4:1],,{4},4b>6[8:20]/5,5,5,5,4,4,4,4,3x^6[2:1],,,,6xpp6[3:1]*qq6[3:1],,,,8b^6[8:1]/4b^2[8:1],8/4,7x^5[8:1]/3x^1[8:1],7/3,8x^6[8:1]/4x^2[8:1],8/4,7x^5[8:1]/3x^1[8:1],7/3,1x-4[8:1]/8x-5[8:1],1/8,4x-1[8:1]/5x-8[8:1],4/5,{8}3qq5[3:1],6pp4[4:1],3x,6x,,,,,1x,2,3x,4,2x,3,4x,5,3x,4,5x,6,4x,5,6x,7,{4}7-5[8:1],7x/2-4[8:1],2x/8-5[8:1],8x/1-4[8:1],1x/7x>3[4:1],3xv5[8:1],{16},Cf,{8},,8x/3x,1x/2x,1^6[8:1]/2^5[8:1],,1b/2b,,3qq5[3:1],6pp4[3:1],3x,6x,,,Cf,,2/6,3/5,4,4xpp4[4:1]*qq4[4:1],,4<7[4:1]*>1[4:1],,,,,7<2[3:1]/1>6[3:1],,7b/1b,,,,E8/B7/B8/B1/B2/E2,E8/E2,8-5[8:1]/1,7x,8/1-4[8:1],2x,8^5[8:1]/1,7x,8/1^4[8:1],2x,1/7^4[8:1],6x,7/3>4[4:1],,3/4bpp4[4:1]*qq4[4:1],,Cf,,,Ch[5:1]/B7/B2/E7/E3/B6/B5/B4/E5/B3,,,6xh[8:1]/1xh[8:1],,7/2,8/3,8b/2b,,8v6[8:1]/2v4[8:1],8/2,8/2,,Cf,E1/B1/B2/E3,E5/B5/B6/E7,6x-8[8:1]/4x-2[8:1],,6x/4x,,6x-8[8:1]/4x-2[8:1],,6x/4x,,2x-4[8:1]/8x-6[8:1],,2x/8x,,2x/8xV62[4:1],,2xpp2[4:1]*qq2[4:1]/8x,,,,,,2,1/3,8/4,8b-5[8:1]/4b-1[8:1],1x^4[7:1]/5x^8[7:1],8x/4x,,,,8b/4b,8b/4b,,8x<4[4:1],8x,4x>8[4:1],,8x<4[4:1],,4x>8[4:1],,8x<4[4:1],,4xpp4[4:1]*qq4[4:1],,,,,,1x-5[8:1],8x,1x,8x,2x-5[8:1],8x,2x,,6bw2[4:1],,,,,Cf,
&inote_5=(156){8}
E2,,E3,,E4,4/7,8/3,1/2,1b-6[4:7]/2b-5[4:3],{1},{8},,,,C,,,Ch[8:5],,,,,,,{4}4xpp4[3:1]*qq4[3:1],,,,{8}6,6h[4:1],,5h[4:1],,4h[4:1],,3,3qq3[4:1],,3pp3[3:1],,,,7,7,7,4qq5[3:1]/5pp4[3:1],6/3,5/4,,,,,1b/8b,2x/7x,1xpp4[4:1]/8xqq5[4:1],1b/8b,,,,Cf,,1>1[4:5],,C,,C,,C,,C,,C,,C,,C,,8V63[4:1],8x,2-7[5:1],,2x,,,1/8,8/1>5[4:1]*>5[4:1],,1x/5x-8[5:1]*q2[5:1],,,,,,
{24}1x>1[3:1],,,,,,,E2,E3,E4,E5,E6,E7,E8,E1,{8},,,Cf/B1/B2/B3/B4/B5/B6/B7/B8,,,,E4/E8,,,,1s5[4:1],,5x-2[3:1],6x-1[24:5],,,,,1/2,8/3,7/4,6/5,Cf,,,,{4}7b-2[1:2]/6,6,5,5,4,4,3,3,3-8[4:1],3,6-1[4:1],6,4pp4[4:1]*qq4[4:1],4bw8[4:1],,{4},4b>6[8:20]/5,5,5,5,4,4,4,4,3x^6[2:1],,,,6xpp6[3:1]*qq6[3:1],,,,8b^6[8:1]/4b^2[8:1],8/4,7x^5[8:1]/3x^1[8:1],7/3,8x^6[8:1]/4x^2[8:1],8/4,7x^5[8:1]/3x^1[8:1],7/3,1x-4[8:1]/8x-5[8:1],1/8,4x-1[8:1]/5x-8[8:1],4/5,{8}3qq5[3:1],6pp4[4:1],3x,6x,,,,,1x,2,3x,4,2x,3,4x,5,3x,4,5x,6,4x,5,6x,7,{4}7-5[8:1],7x/2-4[8:1],2x/8-5[8:1],7/8-4[8:1],8/7>3[4:1],3v5[8:1],{16},Cf,{8},,8x/3x,1x/2x,1^6[8:1]/2^5[8:1],,1b/2b,,3qq5[3:1],6pp4[3:1],3x,6x,,,Cf,,2/6,3/5,4,4xpp4[4:1]*qq4[4:1],,4<7[4:1]*>1[4:1],,,,,7<2[3:1]/1>6[3:1],,7b/1b,,,,E6/B6/E7/E3/B3/E4,8x/1x,,8-5[8:1]/1,7x,8/1-4[8:1],2x,8^5[8:1]/1,7x,8/1^4[8:1],2x,1/7^4[8:1],8x,7/3V14[4:1],,3/4bpp4[4:1]*qq4[4:1],,Cf,,,Ch[8:1]/B7/B2/E7/E3/B6/B5/B4/E5/B3,,6xh[8:1]/1xh[8:1],,7/2,8/3,8b/2b,,8v6[8:1]/2v4[8:1],8/2,8/2,,Cf,E1/B1/B2/E3,E5/B5/B6/E7,6-8[8:1]/4-2[8:1],,6/4,,6-8[8:1]/4-2[8:1],,6/4,,2-4[8:1]/8-6[8:1],,2/8,,2/8V62[4:1],,2pp2[4:1]*qq2[4:1]/8,,,,,,2,1/3,8/4,8b-5[8:1]/4b-1[8:1],1x^4[7:1]/5x^8[7:1],8x/4x,,,,8b/4b,8b/4b,,8x<4[4:1],8x,4x>8[4:1],,8x<4[4:1],,4x>8[4:1],,8x<4[4:1],,4xpp4[4:1]*qq4[4:1],,,,,,1-5[8:1],8,1,8,2-5[8:1],8,2,,6bw2[4:1],,,,,Cf,,,8V63[5:1],,8,2-7[8:1],2,,,B8/B1/B2/C/E6/B5/B4/E4,7q4[6:1]/2p5[6:1],,7/2,,5-8[6:1]/4z8[6:1],,5/4,,,6xqq5[8:1]*pp7[6:1],5xqq1[2:1],,,,1x>5[3:1]*<5[3:1],,,,,B8/B7/B6/B5/B4/B3/B2/B1/E4,,3b/E3/B3/E4,,1s5[8:1],1b,1x,,7-2[8:1]/6-3[8:1],,7/6,,7q4[8:1]/2p5[8:1],5-8[8:1]/4z8[8:1],,,,,7x/2x,B8/B1/B2/Cf/E6/B5/B4/E4,,,6xqq5[4:1]*pp7[4:1],,6x,,,5xqq1[4:1],,1x>5[6:1]*<5[6:1],{16}C,,{8},,B8/B7/B6/B5/B4/B3/B2/B1/E4,,Cf,,{4}1b>1[2:3],8,8,8,8,5,5,5b,{8}C,,3v6[8:8],6v3[8:5],,6x,,,,,,,,,C,,6v3[4:1],,3^6[4:1],,6<3[2:1],6x,C,3x,3v6[4:1]*^6[4:1],3x,,,,,6b,,7-5[8:1],7,2-4[8:1],2,8-5[8:1],8,2-4[8:1],2,1-6[8:1],1,3,4pp4[4:1]*qq4[4:1],,,,,3^6[4:1]/6^3[4:1],,3-1[1:1]/6-1[1:1],{1},{8},,,1b-3[8:1]*-6[8:1],,1b,,6xv3[4:1]/3^6[4:1],,6x/3x,,,,3xV16[4:1],,3b,,7b,,3/6,,3-1[8:1]/6-1[8:1],,3x/6x,,3-1[8:1]/6-1[8:1],,3x/6x,,6-8[8:1]/3-8[8:1],,6x/3x,,6-8[8:1]/3-8[8:1],,6x/3x,,1>8[3:1]/8<1[3:1],,1x/8x,,,{16},,2/7,,1w5[4:8]/8w4[4:8],,1b/8b,,{1},,{8},,,,4xh[4:1]/5xh[4:1],,,4qq5[2:1]/5pp4[2:1],,5/4,,,,,Ch[2:1]f,,,,,,E3/B3/E4/E7/B6/E6,E3/B3/E4/E7/B6/E6,1x/8x,1-4[8:1]/8,2x,1/8-5[8:1],7x,1^4[8:1]/8,2x,1/8^5[8:1],7x,8/2^5[8:1],3x,2/6V85[4:1],,6/5bqq5[4:1]*pp5[4:1],,Cf,,,Ch[8:1]/B2/B7/E3/E7/B3/B4/B5/E5/B6,,5xh[8:1]/4xh[8:1],,6/3,7/2,6b/3b,,6pp4[4:1]/3qq5[4:1],6/3,6b/3b,,,E8/B8/B1/E2,E6/B5/B4/E4,{4}3-1[8:1]/7,7x-5[8:1]/3,3-1[8:1]/7,7x-5[8:1]/3,4-2[8:1]/7,8x-6[8:1]/4,4-2[8:1]/8,8x^6[8:1]/4,8^2[8:1]/4,8x^6[8:1]/4,8^2[8:1]/4,8x-4[8:1]/4,4xpp4[4:1]*qq4[4:1],{16},Cf,,,{8},3b/7b,3b/7b,,C/B1/B2/B3/B4/B5/B6/B7/B8,,8V63[4:1],,3-8[4:1],,8V64[4:1],,4V28[4:1],,8>8[2:1],,,,,,Cf,,8V62[4:1],,3V15[4:1],,7V51[4:1],,2V84[4:1],,,,,Ch[4:5]f/B2/B7/E3/E7/B3/B4/B5/E5/B6,{1},{8},,,,,,8/1,7/2,6/3,5/4,8x/1x,1-4[8:1]/8,,1/8-5[8:1],,1^4[8:1]/8,,1/8^5[8:1],,1-4[8:1]/8,,1/8-5[8:1],,1^4[8:1]/8,,1/8^5[8:1],,1-4[8:1]/8,2x,1/8-5[8:1],7x,1^4[8:1]/8,2x,1/8^5[8:1],7x,1-4[8:1]/8,2x,1/8-5[8:1],7x,1/8,1b,,1-6[8:1]/7x,,1-4[8:1]/3x,,1-6[8:1]/7x,,1-4[8:1]/3x,,1-6[8:1]/7x,,1-4[8:1]/3x,,1x-6[8:1]/7x,,1x-4[8:1],3,1x-6[8:1],7,1x-4[8:1],3,1x-6[8:1],7,1b,3x,1x/2x,1b/2b,7x/8x,7b/8b,5x/6x,5b/6b,3x/4x,3b/4b,E4,E6,B3,B6,B2,B7,E2,E8,
