&title=imp
&artist=Sakuzyo
&first=0
&des=KuSA
&wholebpm=90
&lv_5=12+
&inote_5=(90)
{1}
,,
{8},,,,,,
{24},,
4,5,,4,5b/3h[24:3],,,,,3/6h[24:3],,
,,1h[24:5]/6,,,,,7,6,5,1,2,3,7,8,3,4,5h[24:6],,7h[24:4],,,,,,5/8,,,
1/2,,,3,4,,2/4,,,7/8,,,5,4/6h[24:3],,,,,6/3h[24:3],,,,3/8h[24:5],,,,,
2,3,4h[24:5],,,,,5,6,7,2,3,4,8,7,3,4,5,8,8h[24:14],,6,,,3,,,7,,,1b,,,
1b,8q7[4:1],,,,,,3,,,,,,4q3[4:1],,,7,,,7,,,,,,
8q6[4:1],,,,,,3,,,,,,4q2[4:1],,,7,,,7,,,,,,8,,8,7,,7,5,,5,4,,3/4,,,
18,,,2,4,,4,5,,5/6,7/4,,8,1,,7,2,,3/6,,,3/6,,,2,7,,3,6,,,4/5,,4/5,
3b/6b,,,7/4,,5-1[12:1],6,,8,,,5/6,,,7,8,,1/6,,,2,4,,4,3/5,,,6,,6,7/5,,
4h[2:1]/8,,,1,,,5,,,2,,,5,,,5,4/6,,,2/5,,4-8[12:1],3,,1,,,3/4,,,2,1,,3,4,,6,5,,7,
1/6,,,2,,2,4/1,,2h[4:1]/5,,,8,,,4,,,1/8,1-6[12:1]/8,,,3/7,,,
1b-5[12:1]/8,,,2,,,1b>4[12:1]/8,,,2,,,1b/6,,8,,,1b/6b,,,3,4,,4,2h[8:1],,,7,,7,5,,
4/5,,,2/4,,,5/7,,,8/1,8-3[12:1]/1,,,6/2,,,
8b-4[12:1]/1,,,7,,,8b<5[12:1]/1,,,7,,,8b/3,,1,,,8b/3b,,,6,5,,5,7h[8:1],,,2,,2,4,,
4/5,,,2/7h[8:1],,,8,1,2,3,4-1[12:1],,63,63,,,4b-8[12:1]/5,,,3,,,4b>1[12:1]/5,,,3,,,
4b/7,,5,,,4b/7b,,,2,1,,1,3h[8:1],,,6,,6,8,,1/8,,,2/4,,,4/5,,,
7/5,5-1[12:1]/7,,4,6,,,5b-2[12:1]/7,,,4,,,7/5b,,,4,,,5/6,,1/8,,,3b/6b,,,
4,7,,1,5h[8:1],,,4,,4,6,,6,8,,1/7h[8:1],,,5,6-2[12:1],,8,7,,,{1}1>1[24:44],,
{24}
,,4,,,,,,8,,,,2,,,6,,3,4,,4,5,,7/4,,,6,5h[24:5],,,,,
4h[24:4],,,,3,,2,1,,7,8,,1/6,,,5/2h[24:4],,,,1,,,5/6,,7/1,,,3/2,1/4,,,
7,7,8,,,3,4,5,2,3,4,6,5,4,7,6,5,3,4,5,6q3[8:2],,,4,5,,2,,,2,,,2,,,
1,4,,2,5,,3,6h[24:5],,5,,,8h[4:1],,,7,7,,6h[4:1],,,5,5,,3h[4:1],,,4,4,,1h[4:1],,,
2,2,,3h[8:1],,,8,7p3[12:1],6,4,3,2,1,,,,2,4,3,7,5,6,1,4,3,8,5,6,
{32}2,4,2,4,{24}3h[12:1],,{32}8,7,5,4,3,2,{48}8,7,6,5,4,
{24}32,,,8/5,,6/7,,,8/4h[2:1],,,3-6[12:1],,,7-2[12:1],,,3,,,7,,,,1/5,,,
3,4,2,{32}6,5,7,5,{24}8h[24:3],,,{32}2,3,4,5,1,8,7,6,{48}8,1,2,3,4,5,
{24}
8,8,8,1,3,2,7,5,6,3,5,4,6,5,8,1/7,,6/4-1[12:1],,,2/5,,,
3/4V27[4:1]*V63[4:1],,,,,,,,,,,,,,,,1b/8b,,,
2/5,,4qq2[12:1],3,,7-4[12:1],,,4,,,7,8,,2,,,7,5,,5,6/4,,,3,,3,2/4,,
5h[2:1]/1,,,8,,,4,,,7,,,4,,,4,5/3,,,7/4,,5pp7[12:1],6,,2-5[12:1],,,5,,,2,8,,8,6,,6,4,,4,
5/3,,,7,,7,5/8,,7h[4:1]/4,,,1,,,5,,,
1/2,1-5[12:1]/2,,,8>3[12:1]/4,,,1b-6[12:1]/2,,,8-4[12:1],,,1b,,,8,,,6,,8/3,,,
1b/5b,,,3,4,,4,5h[8:1],,,7,,7,5,,
4/5,,,1/3,,,2/5,,,8/7,8-4[12:1]/7,,,1<6[12:1]/5,,,8b-3[12:1]/7,,,1-5[12:1],,,8b,,,1,,,3,,1/6,,,
8b/4b,,,6,5,,5,4h[8:1],,,3,,3,4,,5/4,,,2h[4:1]/7,,,
1,8,7,6,5-1[12:1],,4,4<7[12:1],,,5b-2[12:1]/6,,,4-8[12:1],,,5b,,,4,,,2,,7/4,,,
1b/5b,,,7,8,,8,1h[8:1],,,3,,3,1,,18,,,2/4,,,5/8,,,46,
4-8[12:1]/6,,3,5-2[12:1],,,4b-7[12:1]/3,,,5-1[12:1],,,4b,,,5,,,7,,2/5,,,
1b/8b,,,5,2,,8,4h[8:1],,,5,,5,3,,3,1,,8/2h[8:1],,,4,3-7[12:1],,1,2,,,6,,
8,8,,6-2[12:1]*-3[12:1],5,,78,87,,
