&title=Design_1
&artist=sweet trip
&first=-0.08
&des=In_Cyan
&lv_5=13+
&inote_5=(117){4},,,,,E4/E6,
,E7/E3,
{16},,,,E5,,,C,,,{8}E1,{16},E4,B4,B5,
{4}E6,E8/E2,,E7/E3,
{16}C,,,E4,E3,,,E7,{4}E6,C,
,E8/E2,{16}E6,B5,B4,E4,,,,,,,,,{4}E7/E3,
E1,E5,
,C,,C,
,Ch[2:1],,,{2}5p8[4:1],
1p4[4:1],
8q5[4:1],4q1[4:1],
7p3[4:1],2q6[4:1],
{16}7p3[4:1],,,8,1,,,1,{2}2q6[4:1],
{4}8z4[4:1],4z8[4:1]*z8[4:1],,,2z6[4:1],
6z2[4:1]*z2[4:1],,,6s2[4:1],
2s6[4:1]*s6[4:1],,,4s8[4:1],
8s4[4:1]*s4[4:1],{16},,,,,,,,5,
5,3,3,{4}4-8-6[4:1],4-2-8[8:1]*-6[8:1],4v7[8:1],
4v1[8:1],4>2[8:1]*<6[8:1],4pp6[8:1],1-4[8:1],
1w5[8:1],1-7-3[4:1],1-5-7[4:1]*-5-3[4:1],1-3[8:1],
1-7[8:1],2-6[8:1],3-5[8:1],3pp5[8:1]*-7[8:1],
3,4-2[8:1]/6p2[8:1],4q8[8:1],4,
1-5[8:1],1/5>7[8:3],7,6,
5p1v4[4:1],5-8[8:1],5-3[8:1]*-7[8:1],5v2[8:1],
7>4[4:1],4q5[4:1],5<7[8:1],1-4[8:1]*-3[8:1],
1-6[8:1]*-7[8:1],1-5[8:1],{2}1w5[8:1],
{4}3-1[8:1]/7-1[8:1],3-5[8:1]/7-5[8:1],{2}3-7[8:1]/7-3[8:1],
{4}1-7-2[4:1]/5-3-6-2[32:13],{16},,,,,,,,3,3,{8}3,
{4}8-2-7[4:1]/4-6-3-7[32:13],{16},,,,,,,,6,6,{8}6,
{4}5/1-3[8:1],5/1<6[8:1],4x/1-3[8:1],5x/1-5[8:1],
{8}1/4h[16:1],4h[16:1],{16}7,8,1,2,B7,B6,B2,B3,E7,E6,E3,E4,
{4}5<1[4:1],5-3[8:1],5-1[8:1]*-7-3[4:1],5,
2-8-3[4:1],7-4[8:1],7x>2[8:1],7xw3[8:1],
,,,,{1}Ch[4:27],
{8},,,,,,,,,,,,,,,,E7,
,,E6,{2}E5,
{8}E4,,,E3,{2}E2,
{8}E1,,,E8,{2}E7,
{8}E6,,,E5,{4}E4,E3f/E7f,
1v3[8:1],1qq8[4:1],{2}2>7[4:1],
{4}5-1[8:1],5-3[8:1]*-7[8:1],5,7-3[8:1]/1-5[8:1],
1>5[4:1],5>1[4:1],6p8[4:1],6,
3-7[8:1],3qq1[8:1]/5v8[8:1],5>4-2[8:1],6w2[8:1],
,8-5[8:1],8>5[4:1],8-6[8:1]*<7-5[8:1],
8-2[8:1],7-3[8:1],{8}7,4,{4}4-1[8:1],
5-8[8:1],2-7[8:1],6-3[8:1],2pp4[8:1],
6pp8[8:1],4>8[4:1]*>8[4:1],8<4[4:1],4,
{8}3h[8:1],4,6h[8:1],5,B2,B1,B7,B8,
3h[8:1],4,6h[8:1],5,{4}3-1-5[4:1],4-8-6[4:1],
4-2[8:1],4,5q1[8:1]/1q5[8:1],5>2[8:1]/1<6[8:1],
{2}5v8[8:1]/1v4[8:1],{16}2,2h[16:1],4,4h[16:1],{4}5,
7-5<8[4:1],8qq1[4:1],{8},,2,{16}3h[16:1],4h[16:1],
5h[16:1],6h[16:1],,,{4}7>2[8:1]/3p6[8:1],,5p8[8:1]/1>4[8:1],
,1p4[8:1]/5<8[8:1],1-3[8:1],4-8[8:1],
5-7[8:1],3-1[8:1],4-8[8:1],1,
{8}7-3[8:1]/1-5[8:1],3V14[4:1]/5V74[4:1],,,,,{4}C,
{8}2-6[8:1]/8-4[8:1],6pp5[4:1]/4qq5[4:1],,,,,{4}C,
{8}7v4[8:1]/1v4[8:1],4p8-3[4:1]*q8-5[4:1],,,,,{4}C,
{8}2v5[8:1]/8v5[8:1],5qq2[4:1]*pp8[4:1],,,,,{4}C,
{2}1pp5[4:1],6pp2[4:1],
{8}4h[16:1],4h[16:1],6,6,{16}3h[16:1],4h[16:1],3h[16:1],4h[16:1],,,,,{4}2-6-4[4:1],
2/6,7-1-5[4:1],7/3,
2-4-8[4:1],2/6,5-1-7[4:1],5/1,
4qq8[4:1],4/8,7qq3[4:1],7/3,
2qq6[4:1],2/6,7qq3[4:1],7/3,
1pp4[4:1],1/5,5pp8[4:1],5/1,
4qq7[4:1],8/4,5pp2[4:1],1/5>2[8:3]*>7[4:3],
,,,C,
1-5[8:1]/6-4[8:1],1>4[8:1]*<6[8:1],1-5[8:1],7-3[8:1],
3-5-1[4:1],2-6[8:1],2-4[8:1],7>1[8:1]/2p6[8:1],
7p3[8:1],1q5[8:1],8-4[8:1],4b,
{2}3-1[8:1],{16}3-1[8:1],5,{8}4,,,{2}7-5[8:1],
{16}7-5[8:1],1,{8}8,,,{2}4-2[8:1],
{16}4-2[8:1],6,{8}5,{16},,,,6,
3,8,1,5,2,7,4,{4}8-6[8:1],8/1h[8:1],
{16}2,7,4,5,1,6,3,8,{4}4-2[8:1],4/5h[8:1],
{16}7,4,6,2,8,3,7,1,{4}5w1[8:1],5,
{16}3-1[8:1],5,2,4,{4}3,{16}3-1[8:1],5,2,4,{4}3,
{8}7h[16:1]/5h[16:1],7h[16:1]/5h[16:1],B7,B5,{16}3-1[8:1],5,2,4,{4}3,
{16}3-1[8:1],5,2,4,{4}3,{16}3-1[8:1],5,2,4,{4}3,
{16}6x,6x-8[8:1],4,7,5,6,,,2h[16:1],4,2h[16:1],4,2h[16:1],4,2h[16:1],4,
2h[16:1],4x,2h[16:1],4,{8}3x,{32}A8,E1,E2,A2,A7,B7,B3,A3,A6,E6,E5,A4,{4}C,
E
