&title=Farewell to Marrakech
&artist=Dirty Androids
&first=0.96
&des=So let me melt in this rain.
&lv_5=14
&lv_6=14
&inote_5=(144)
{24}
3-6[2:1],4,3,4,,,,,,,,,,,,,,,{16},7,,,
{32}
5-2[2:1],6-3[32:15],,,,,,,{4},,,
{1}
1>6[2:1],
{4}
7V51[8:3]/6>2[2:1],,,{24},,,8,7,6,
{4}
5/3bq5[8:3],,,{16},3,,{32}5,6,
{4}
4/7bpp5[8:3],,,,
{8}
4h[4:1],,6,6h[4:1],,3<5[8:1],,{24}6qq5[16:6],7,8,
{2}
1q8[4:1],{8},,2/6,2/6,
{16}
4h[16:3],,,6,{8}4h[8:1],7,7h[8:1],3h[8:1],{16}5h[16:3],,,3,
{8}
5h[8:1],2,2h[8:1],6,{16}6h[16:3],,,5,{8}6h[8:1],3,
{8}
3h[8:1],7,{16}7h[16:3],,,8,{8}7h[8:1],{16}1,6,2,6,3,6,
{48}
3b,4,5,,,,,,,,,,{16}8h[16:3],,,3,{8}8h[8:1],1,{16}1h[16:3],,,6,
{8}
1h[8:1],8,{16}7/2,6/3,4/5,,{8}4-2[8:1],5-7[8:1],4v1[8:1],5,
{8}
4,8,{16}2,2/7,,6,{8}6/1,{16}1,5,2,6,3,7,
{8}
4h[8:1],{16}7,7,{8}4h[8:1],{16}6,6,{8}4h[8:1],{16}5,5,{8}4h[8:1],6,
{4}
7h[16:11],3,{16}2,,,1,8-3[8:1]/6-1[8:1],,,,
{16}
6b/8b,,,,4/8,,7,5,6,3,4,3,5,2,6,,
{16}
1h[8:1]/7h[8:1],,,,1/7,,2,6,3,5,4,7,5,6,4,,
{32}
6-4[8:1],7-4[32:3],8,,,,,,,,,,,,,,4-8[8:1],3-8[8:1],2,,,,,,,,,,,,,,
{32}
7,6,5,,{16},1,,,{32}2q8[16:3]/5,3/6v4[32:5],4/7,,{4},,
{16}
1h[4:1]/5h[4:1],,,,,,6,2,5,4,7,3,8h[8:1],,2,2,
{32}
7,6,5,,3,,3,,8,7,6,,{16}4,4,{32}1>4[8:1],8,7,6,5,,,,{16},,,,
{4}
8/5p1[8:1],{8},6bV83[4:1],,,,,
{16}
4h[16:3],,,1,,3/8,,7/2h[16:3],,,{8}5,6/1-5[8:1],{16}8,8,
{8}
1b,,7qq5[8:1]/3pp5[8:1],,7b/3b,,6-1[8:1]/2-5[8:1],,
{8}
6b/2b,,8<5[8:1]/4>1[8:1],,8b/4b,,8>5[4:1],,
{4}
7h[8:3],{16},,4,6,3,5,2h[4:1],4h[16:5],,,,,
{16}
3,3,3,3,3,3,3,3,3-6[8:1],,,,2b,,,,
{16}
3/7,,6-8[8:1],4,5,,2h[4:1],,,,1,,3,8,4,7,
{16}
5/6,,4-1[8:1],5,3,,7h[4:1],,,,8,6,6,,{32}1,2,3,,
{16}
6h[8:1],,4,4,7h[8:1],,2,2,5h[8:1],,3,3,8h[8:1],,1h[8:1],,
{16}
7,7,5,5,1,1,2,2,8w4[8:1],,,,8b,,,,
{16}
6/2,,3-1[8:1],5,4,,7h[4:1],,,,8,,6,1,5,2,
{16}
4/3,,5-8[8:1],4,6,,2h[4:1],,,,1,3,3,,{32}8,7,6,,
{16}
4h[8:1],,5,5,2h[8:1],,7,7,8h[8:1],,6,6,5h[8:1],,7,,
{16}
8,6,8,2,8,3,5,3,1,4,8,5,{32}7,6,5,4,3,2,1,8,
{16}
7/3b,,4,6,2h[8:1],,5,3,7h[8:1],,3,5,1,6,5,7,
{16}
3h[8:1],,8,5,7h[8:1],,4,6,3h[8:1],,5,2,7,4,8,{32}3b,2b,
{16}
1b/5h[4:1],,,,2h[4:1],,,,{32}4,5,6,7,8,,,,{4}2b-6[8:7],
{24}
7,3,7,3,7,3,7,3,7,3,7,3,7,3,7,3,7,3,7,,,{32}8,1pp1[48:17],2,3,
{4}
4bpp5[4:1],,{8},{24}8,7,6,5,4,3,2,,,
{24}
7qq5[8:1],1v4[12:1],7,1,,,,,,,,,3qq1[8:1],6v8[12:1],3,6,,,,,,,,,
{24}
1,7,1,7,1,7,1h[8:1],,,7,2/6,3/5,{4}4q1[8:1],{16}6,6h[16:3],,,
{16}
3,,,,2V47[4:1]/7V52[4:1],1/8,,,,,,,,,,,
{4}
7/2h[4:1],6h[8:3],{8},5,{4}5h[4:1],
{4}
1h[8:3],{8}6,6,{4}6h[4:1],2h[8:3],
{8}
4,4,{4}4h[4:1],5h[8:3],{8}6,6,
{24}
7,8,1,2h[2:1],,,{8}4,4h[8:3],{24},,,,,,2,1,8,7h[4:1],,,{8}5,
{8}
5h[4:1],,4,5<7[8:1],4>2[8:1],5v8[8:1],4,
{8}
5,1,{16}7/3,3/7,,2/6,{8}2/6,{32}1,2,3,4,5,6,7,8,1/5,2/6,3/7,4/8-4[32:13],
{4}
1/5s1[8:3],,,6<8[8:3]/2>4[8:3],
{4}
,,{2}5qq4[4:5]/1qq8[4:5],
{8}
,,,,,,,,,,3/6,
{24}
4,5,4,5,4,5,4,{48},,,,{16}6b/5b,,,2b/4b,
{16}
,,{8}8b/1b,{48}1b/8b,2/7,3/6,4/5,,,,,,,,,{8}3,6,{16}4,5,2,1,
{16}
3>8[16:1],8,{8}4,{48}7b,6,5,4,,,,,,,,,{8}5,2,{16}6,5,8,1,
{16}
7<4[16:1],2,{8}6,{48}4b-8[8:1],3v8[48:5],2,1,{4},{16},,{24},{48}8b-4[8:1],7v4[48:5],6,5,{4},{16},,{64},,{96},{32}2/6,
{32}
3/7,{16}4/8,,1/5,{48},,,,,,5/1,8/4,7/3,6/2,,,,,,,,,,,,,,,{16}6,
{16}
3,7,2,{48}8b/1b,7/2,6/3,5/4,,,,,,,,,{8}3,7,{16}4,5,3,6,
{8}
2,7b/8b,{24}6b,5,6,5,{48},,,,{16}3b/4b,5b/2b,,1b/8b,{48},,,2b,3,4,7b,6,{12}5,
{16}
4b,5b,4b,5b,{4}3v6[8:1],{8},8bq1[8:3],{16},,,,,,,,4,
{16}
,,4h[8:1],,8,,5/6,,,{8}4/2,
{16}
8-4[8:1]/1-5[8:1],7/2,,,{4}1b/8b,7<4[8:1]/3v8[8:1],7b/3b,
{4}
1>4[8:1]/5<8[8:1],5b/1b,1-6[8:1]/5-2[8:1],5b/1bpp5[2:1],
{16}
,,,,,,,,6>2[4:1],7,{8}8h[8:3],{16},,,,,,1,
{16}
7,{8}3h[8:1],{16}6,5,{8}7h[8:1],{16}4,5,{4}3-1[16:1],
{4}
6b,{32}2,3,{16}4,8,,{32}7,6,{16}5,1,,{48}2,3,4,{16}5,8,,
{48}
7,6,5,{16}4,8h[8:1],,{32}4,3,2,1,8,7,6,5pp4[32:7],1pp1[16:3],8,7,6,5,4,3,2,{16}1b,,,,
{4}
,5/8h[4:1],{16},,7,1,8,2,1h[4:1],3h[16:5],
{16}
,,,,2,2,2,2,2,2,2,2,{4}2-7[8:1],
{4}
3b,{16}5/6h[16:3],,,3,{8}6h[4:1],1,1,1,
{16}
4/3h[16:3],,,6,{8}3h[4:1],8,8,8,{16}6-4[8:1],,,4,
{8}
6,2-5[8:1],{16},5,{8}2,{16}7-4[8:1],,,4,{8}7,2,
{16}
6b>3[16:1],3b<8[16:11],8b,1b,{4}6b,
&inote_6=(144)
{24}
3-6[2:1],4,3,4,,,,,,,,,,,,,,,{16},7,,,
{32}
5-2[2:1],6-3[32:15],,,,,,,{4},,,
{1}
1>6[2:1],
{4}
7V51[8:3]/6>2[2:1],,,{24},,,8,7,6,
{4}
5/3bq5[8:3],,,{16},3,,{32}5,6,
{4}
4/7bpp5[8:3],,,,
{8}
4h[4:1],,6,6h[4:1],,3<5[8:1],,{24}6qq5[16:6],7,8,
{2}
1q8[4:1],{8},,2/6,2/6,
{16}
4h[16:3],,,6,{8}4h[8:1],7,7h[8:1],3h[8:1],{16}5h[16:3],,,3,
{8}
5h[8:1],2,2h[8:1],6,{16}6h[16:3],,,5,{8}6h[8:1],3,
{8}
3h[8:1],7,{16}7h[16:3],,,8,{8}7h[8:1],{16}1,6,2,6,3,6,
{48}
3b,4,5,,,,,,,,,,{16}8h[16:3],,,3,{8}8h[8:1],1,{16}1h[16:3],,,6,
{8}
1h[8:1],8,{16}7/2,6/3,4/5,,{8}4-2[8:1],5-7[8:1],4v1[8:1],5,
{8}
4,8,{16}2,2/7,,6,{8}6/1,{16}1,5,2,6,3,7,
{8}
4h[8:1],{16}7,7,{8}4h[8:1],{16}6,6,{8}4h[8:1],{16}5,5,{8}4h[8:1],6,
{4}
7h[16:11],3,{16}2,,,1,8-3[8:1]/6-1[8:1],,,,
{16}
6b/8b,,,,4/8,,7,5,6,3,4,3,5,2,6,,
{16}
1h[4:1]/7h[4:1],,,,,,2,6,3,5,4,7,5,6,4,,
{32}
6-4[8:1],7-4[32:3],8,,,,,,,,,,,,,,4-8[8:1],3-8[8:1],2,,,,,,,,,,,,,,
{32}
7,6,5,,{16},1,,,{32}2q8[16:3]/5,3/6v4[32:5],4/7,,{4},,
{16}
1h[4:1]/5h[4:1],,,,,,6,2,5,4,7,3,8h[8:1],,2,2,
{32}
7,6,5,,3,,3,,8,7,6,,{16}4,4,{32}1>4[8:1],8,7,6,5,,,,{16},,,,
{4}
8/5p1[8:1],{8},6bV83[4:1],,,,,
{16}
4h[16:3],,,1,,3/8,,7/2h[16:3],,,{8}5,6/1-5[8:1],{16}8,8,
{8}
1b,,7qq5[8:1]/3pp5[8:1],,7b/3b,,6-1[8:1]/2-5[8:1],,
{8}
6b/2b,,8<5[8:1]/4>1[8:1],,8b/4b,,8>5[4:1],,
{4}
7h[8:3],{16},,6,7,5,8,4h[4:1],1h[16:5],,,,,
{16}
3,3,3,3,3,3,3,3,3-6[8:1],,,,2b,,,,
{16}
3/7,,6-8[8:1],4,5,,2h[4:1],,,,1,,3,8,4,7,
{16}
5/6,,4-1[8:1],5,3,,7h[4:1],,,,8,6,6,,{32}1,2,3,,
{16}
6h[8:1],,4,4,7h[8:1],,2,2,5h[8:1],,3,3,8h[8:1],,1h[8:1],,
{16}
7,7,5,5,1,1,2,2,8w4[8:1],,,,8b,,,,
{16}
6/2,,3-1[8:1],5,4,,7h[4:1],,,,8,,6,1,5,2,
{16}
4/3,,5-8[8:1],4,6,,2h[4:1],,,,1,3,3,,{32}8,7,6,,
{16}
4h[8:1],,5,5,2h[8:1],,7,7,8h[8:1],,6,6,5h[8:1],,7,,
{16}
8,6,8,2,8,3,5,3,1,4,8,5,{32}7,6,5,4,3,2,1,8,
{16}
7/3b,,4,6,2h[8:1],,5,3,7h[8:1],,3,5,1,6,5,7,
{16}
3h[8:1],,8,5,7h[8:1],,4,6,3h[8:1],,5,2,7,4,8,{32}3b,2b,
{16}
1b/5h[4:1],,,,2h[4:1],,,,{32}4,5,6,7,8,,,,{4}2b-6[8:7],
{24}
7,3,7,3,7,3,7,3,7,3,7,3,7,3,7,3,7,3,7,,,{48}8,1pp1[48:17],2,3,4,5,
{4}
6bpp4[4:1],,{8},{24}8,7,6,5,4,3,2,,,
{24}
7qq5[8:1],1v4[12:1],7,1,,,,,,,,,3qq1[8:1],6v8[12:1],3,6,,,,,,,,,
{24}
7,1,7,1,7,1,7h[8:1],,,1,2/6,3/5,{4}4q1[8:1],{16}6,6h[16:3],,,
{16}
3,,,,2V47[4:1]/7V52[4:1],1/8,,,,,,,,,,,
{4}
7/2h[4:1],6h[8:3],{8},5,{4}5h[4:1],
{4}
1h[8:3],{8}6,6,{4}6h[4:1],2h[8:3],
{8}
4,4,{4}4h[4:1],5h[8:3],{8}6,6,
{24}
7,8,1,2h[2:1],,,{8}4,4h[8:3],{24},,,,,,2,1,8,7h[4:1],,,{8}5,
{8}
5h[4:1],,4,5<7[8:1],4>2[8:1],5v8[8:1],4,
{8}
5,1,{16}7/3,3/7,,2/6,{8}2/6,{32}1,2,3,4,5,6,7,8,1/5,2/6,3/7,4/8-4[32:13],
{4}
1/5s1[8:3],,,6<8[8:3]/2>4[8:3],
{4}
,,{2}5qq4[4:5]/1qq8[4:5],
{8}
,,,,,,,,,,3/6,
{24}
4,5,4,5,4,5,4,{48},,,,{16}6b/5b,,,2b/4b,
{16}
,,{8}8b/1b,{48}1b/8b,2/7,3/6,4/5,,,,,,,,,{8}3,6,{16}4,5,2,1,
{16}
3>8[16:1],8,{8}4,{48}7b,6,5,4,,,,,,,,,{8}5,2,{16}6,5,8,1,
{16}
7<4[16:1],2,{8}6,{48}4b-8[8:1],3v8[48:5],2,1,{4},{16},,{24},{48}8b-4[8:1],7v4[48:5],6,5,{4},{16},,{64},,{96},{32}2/6,
{32}
3/7,{16}4/8,,1/5,{48},,,,,,5/1,8/4,7/3,6/2,,,,,,,,,,,,,,,{16}6,
{16}
3,7,2,{48}8b/1b,7/2,6/3,5/4,,,,,,,,,{8}3,7,{16}4,5,3,6,
{8}
2,7b/8b,{24}6b,5,6,5,{48},,,,{16}3b/4b,5b/2b,,1b/8b,{48},,,2b,3,4,7b,6,{12}5,
{16}
4b,5b,4b,5b,{4}3v6[8:1],{8},8bq1[8:3],{16},,,,,,,,4,
{16}
,,4h[8:1],,8,,5/6,,,{8}4/2,
{16}
8-4[8:1]/1-5[8:1],7/2,,,{4}1b/8b,7<4[8:1]/3v8[8:1],7b/3b,
{4}
1>4[8:1]/5<8[8:1],5b/1b,1-6[8:1]/5-2[8:1],5b/1bpp5[2:1],
{16}
,,,,,,,,6>2[4:1],7,{8}8h[8:3],{16},,,,,,1,
{16}
7,{8}3h[8:1],{16}6,5,{8}7h[8:1],{16}4,5,{4}3-1[16:1],
{4}
6b,{32}2,3,{16}4,8,,{32}7,6,{16}5,1,,{48}2,3,4,{16}5,8,,
{48}
7,6,5,{16}4,8h[8:1],,{32}4,3,2,1,8,7,6,5pp4[32:7],1pp1[16:3],8,7,6,5,4,3,2,{16}1b,,,,
{4}
,5/8h[4:1],{16},,6,7,5,8,4h[4:1],1h[16:5],
{16}
,,,,3,3,3,3,3,3,3,3,{4}3-6[8:1],
{4}
1b,{16}5/7h[16:3],,,3,{8}7h[4:1],1,1,1,
{16}
4/3h[16:3],,,6,{8}3h[4:1],8,8,8,{16}6-4[8:1],,,4,
{8}
6,2-5[8:1],{16},5,{8}2,{16}7-4[8:1],,,4,{8}7,2,
{16}
6b>3[16:1],3b<8[16:11],8b,1b,{4}6b,
