&title=ライラック
&artist=Apo11o program / 森永真由美
&first=0.02
&des=StageChan
&lv_5=13+
&inote_5=(145)
{4},,,,
{16}
5,,37,,37,,1,1h[8:1],,8,2,7,3,6,45,,
{16}
6v1[8:1]/3,,,3,6,,3,,1v6[8:1]/4,,,4,1,,4,,
6v1[8:1]/3,,,3,6,,3,,1v4[8:1]/2,,,1,2,,2,,
4v7[8:1]/1,,,1,4,,1,,7v4[8:1]/8,,,7,8,,8,,
4v7[8:1]/1,,,1,4,,1,,2h[16:1],8h[16:1],4h[16:1],6h[16:1],8h[16:1],4h[16:1],2h[16:1],6h[16:1],
3v8[8:1],,,6,3,,6,,8v3[8:1]/5,,,5,8,,5,,
3v8[8:1]/6,,,6,3,,6,,8v5[8:1]/7,,,7,8,,7,,
5v2[8:1]/8,,,8,5,,8,,2v5[8:1]/1,,,1,2,,1,,
{4}4-8[8:1]/8-4[8:1],4b/8b,4<7[8:1]*>1[8:1],4b,
{16}
8h[8:1],,2h[8:1],,4,,5,4,,3,4,,26,,7,7,
8,,1,8,,7,8,7,,1,1,,27,,,2,
1,,8,1,8,,2,2,1,2,,37,,,6,5,
6,,4,5,4,4,6,6,5,6,,36,,,,,
1-5[8:1],8,1,8,1>4[8:1],,8,8,1-5[8:1],7,,7,1,,8,8,
2>4[8:1],1,2,1,2-5[8:1],8,,8,2>4[8:1],7,7,,2,,,,
1/8-4[8:1],,1,,1/8<5[8:1],,2,2,8-4[8:1],2,2,,8,,1,1,
7<5[8:1],,8,,7-4[8:1]/8,,1,1,7<5[8:1],2,2,,7,,,,
{16}
8/2,,,8/2>4[16:3],,,4q1[4:1],,,,1q6[4:1],,,,6<1[4:1],,
,,1>4[4:1],,,,4pp6[16:3]*qq2[16:3],,,,,,,,,,
1/7,,,1/7<5[16:3],,,5p8[4:1],,,,8p2[4:1],,,,2p5[4:1],,
,,5v2[16:3]*v8[16:3],,,,,,,,,,1,8,1,8,
1b,,,3b/7b,,,5b>2[8:1]*<8[8:1],,46,,5-1[8:1],,,,5-2[8:1]*-8[8:1],,
,,5pp5[16:3]*qq5[16:3],,,,5,,,,,,1-5[8:1],,28,,
1,,8-3[16:2]*-5[16:2],,8,,8,,,,1w5[8:1],,28,,1,,
,,36,,5>5[4:1],4,5,,1,,,,,,,,
{8}
1>5[16:3]/7,,1,1<5[4:1],,1/5pp1[8:3],,2-4[8:1],
,2,,7-4[8:1]/3-8[8:1],,37,,1,
8<4[16:3]/2,,8,8>4[4:1],,8/4qq8[8:3],,7-5[8:1],
,7,,1pp1[4:1],,8qq8[4:1],,8>4[4:1],
,4<8[4:1],,8p6[8:3],,5-2[8:1],,5,
,7-5[8:1],3-8[8:1],7-3[8:1],3-7[8:1],7,1,1>5[8:1]*<5[8:1],
,1-5[8:1]*-5[8:1],,8<4[8:1]*>4[8:1]/1,,8-4[8:1]*-4[8:1],,8/1,
,3,3>1[8:1]/5<7[8:1],,3v5[8:1]*v5[8:1]/5,,8>8[4:1],,
4h[4:1],,,4>1[4:1],,1pp5[8:3],,8-6[8:1],
,8-2[8:1]*v3[8:1],,8,,4h[8:1],3h[8:1],2h[8:1],
{16}1b,,7,4b/7,,2,2h[4:1]/5b,,{8},8pp3[8:3]*qq5[8:3],17,8,
,,,,45,{16}1,8,2,7,3,6,
{8}4-8[8:1]/5,3,5-1[8:1]/4,6,5/4qq8[8:3],3,4/5,6h[4:1],
,,5,{16}1,5,{8}1w5[8:1],37,,,
37,{16}5pp7[8:1]*qq3[8:1],4,{8}5,,,8qq6[8:1]/4qq2[8:1],6qq4[8:1]/2qq8[8:1],48,
,,,{16}1,8,{8}1,2,37,,
{16}
6h[16:3],,,5,,,3h[16:6],,,,4,,4,,4h[8:3]/5h[8:3],,
,,,,,,5,3,4,3,2,3,1,3,8,3,
{32}7b,6,5,4,3,2,1,8,{16}7h[4:1]/3h[4:1],,,,,,5h[8:1]/1h[8:1],,,,8h[8:7]/4h[8:1],,
,,7,,1,,6,,2,,5,,3,,3h[8:3]/4,,
,,2,,1,,7h[8:3]/8,,,,6,,5,,6h[4:1]/4,,
,,7h[8:1],,5h[8:1],,8h[8:1],,4h[8:1],,1h[8:1],,{24}3,4,5,{16}6/3h[4:1],,
,,1,,1h[8:1],,5h[8:1],,8h[4:1],,,,{24}6,5,4,{16}3/6h[4:1],,
,,8,,8h[8:1],,4h[8:1],,1h[8:1],,8h[8:1],,{24}1,2,3,{16}4/1h[8:1],,
,,8/1h[8:1],,{24}8,7,6,{16}5/8h[8:1],,,,8/1,,{24}81,72,63,{16}5h[8:1]/4h[8:1],,
,,63,,52,,74,,51,,84,,{24}2,3,4,7,6,5,
{32}1,2,3,4,5,6,7,8,{16}1,5,2,6,3,7,4,7,1,7,3,7,
2,4,3,7,5,6,1,3,2,8,6,7,3,6,2,7,
8/1b,,,4b/2,,,7h[8:3]/5b,,,,6,,8,,1h[8:9],,
,,2,,8,,3,,7,,4,,6,,5h[8:1],,
,,4,6,5,6,7,6,8,6,1,6,2,7,3h[8:3],,
,,1,,8,,6h[8:2],,,,1,,{32}6,5,4,3,2,1,8,7,
{16}2h[8:1]/6h[8:1],,,,{24}2,3,4,{16}5h[8:1]/1h[8:1],,,,{24}84,73,62,51,62,73,{16}8h[8:1]/4h[8:1],,
,,{24}51,84,73,62,51,84,{16}7h[4:1]/3h[8:3],,,,,,1h[4:1],,,,
{16}
7,,,7<5[16:3],,,5p8[4:1],,,,8p3[4:1],,,,3>8[4:1],,
,,8<5[4:1],,,,5qq3[16:3]*pp7[16:3],,,,,,,,,,
2/8,,,8/2>4[16:3],,,4q1[4:1],,,,1q7[4:1],,,,7q4[4:1],,
,,4v7[16:3]*v1[16:3],,,,,,,,,,8,8,8,8,
8b,,,7b/1b,,,6b-1[8:1]/2b-5[8:1],,73,,6>3[8:1]/2<7[8:1],,,,2q6[8:1]/6q2[8:1],,
,,2-7[8:1]/6-3[8:1],,,,62,,,,8,,8-4[8:1],,71,,
8,,1-6[8:1]*-4[8:1],,1,,1,,,,8w4[8:1],,71,,8,,
,,63,,4<4[4:1],5,4,,8h[4:2],,,,,,,,
{8}
,,,,
{8}
8V64[8:1]/1-3[8:1],,,,38,8-5[8:1]/3-5[8:1],,8w4[8:1]/3,
,8<3[8:1],,8,,2,{16}8,1,8,1,
{8}7<3[16:3]/2,,7,7>3[4:1],,7/3qq8[8:3],,7-5[8:1],
,7,,6<2[4:1],,2v4[4:1],,4pp4[4:1]*qq4[4:1],
,,,,,4-8[8:1]/5-1[8:1],,45,
,2-4[8:1],6-1[8:1],2-6[8:1],6-2[8:1],2,8,8<4[8:1]*>4[8:1],
,8-4[8:1]*-4[8:1],,1>5[8:1]*<5[8:1]/8,,1-5[8:1]*-5[8:1],,1/8,
,6,6<8[8:1]/4>2[8:1],,6v4[8:1]*v4[8:1]/4,,1,,
{32}1b,8,7,6,5,4,3,2,{8}1/5,5<8[4:1],,8qq4[8:3],,1-3[8:1],
,1-7[8:1]*v6[8:1],,1,,5h[8:1],6h[8:1],7h[8:1],
{16}8b,,2,3b/1,,7,6b/8h[4:1],,{8},5qq2[8:3]*pp8[8:3],46,5,
,,,,18,{16}7,5,6,2,4,3,
{8}5-1[8:1]/4,6,4-8[8:1]/5,3,4/5pp1[8:3],6,5/4,3h[4:1],
,,4qq5[4:1]/8qq1[4:1],,4/8,,,,
48,7-2[8:1]/3-6[8:1],26,37,,1qq7[8:1]/5qq3[8:1],7qq5[8:1]/3qq1[8:1],51,
,,,{16}8,8,6,6,4,4,{8}3b/5b,,
,,,,,,,,E
