&title=RESISTER
&artist=ASCA
&first=0.01
&des=卧槽好好听啊那我写个红谱
&lv_4=12
&inote_4=(183)
{1},
{4}2bx-6[8:12]/6bx,,,,,,,,
{4}7-3[8:12]/3,,,,,,,,
{4}8b/1b,,
{8}2,2,6,6,4bx-7[2:1]/5bx-2[2:1],,,,,,,,
{16}1,8,1,8,1-5[8:1],,,,6bx,,,,,,,,
{8}3h[8:1]/4h[8:1],,3h[8:1]/4h[8:1],,1h[8:1]/2h[8:1],,1h[8:1]/2h[8:1],,7h[8:1]/8h[8:1],,7h[8:1]/8h[8:1],,4h[8:1]/6h[8:1],,3h[8:1]/5h[8:1],,
{8}1h[8:1]/2h[8:1],,7h[8:1]/8h[8:1],,5h[8:1]/6h[8:1],,2h[8:1]/4h[8:1],,1h[8:1]/8h[8:1],,5h[8:1]/7h[8:1],,2/4-8[8:1],,,,
{8}3h[8:5],,4h[8:4],,,,,,2,3,4,3,,,5,,
{8}6h[8:5],,5h[8:4],,,,,,7,6,5,6,,,3,,
{8}2h[8:5],,4h[8:4],,,,,,3,2,4,5,,,6,,
{8}7h[8:5],,5h[8:4],,,,,,6,7,5,6/4,,,3,,
{8}2-6[2:1],,,,5,,,,
{8}7-4[2:1],,,,3,,,,
{8}2-7[2:1],,,,4,,,,
{8}5-1[2:1],,,,2,,,,
{8}3<6[4:1],,7,,8-5[4:1],,,,
{8}2>5[4:1],,7,,8-4[4:1],,,,
{8}2h[4:1],,4h[4:1],,5h[4:1],,7h[4:1],,
{8}8>6[4:3],,,,
{16},,,,,,,,
{8}7hx[2:1],,,,4h[2:1],,,,
{8}3<6[2:1],,,,2,,,,
{8}2h[2:1],,,,5h[2:1],,,,
{8}6>3[2:1],,,,7,,,,
{8}6,6,4,4,5,5,2,2,
{8}4,4,1,1,7,7,5,5,
{8}1,8,7,6,5,4,3,2,
{16}1,7,1,7,1,7,1,7,1,7,1,7,1,7,1,7,8b-4[8:1],,8b,,
{4},7-3[8:1],,
{16}2bx-5[8:1]/4bx,,,,,,6,,7,,8-4[8:1],,,,3,,3h[4:1],,,,1,,1-5[8:1],,,,2>6[2:1],,,,7,,
{16}7,,8,,8,,1,,,,5x-1[8:1],,,,,,
{8}8,8,2,2,4,4,6/7,,
{8}1h[8:1]/2h[8:1],,3h[8:1]/4h[8:1],,7-2[8:1]/8h[8:1],,,,
{8}3h[8:1]/4h[8:1],,5h[8:1]/6h[8:1],,2-5[8:1]/1h[8:1],,,,
{4}7h[4:1],5h[4:1],
{16}3h[4:1],,,,1h[4:1],,,,8b,,,5b/7b,,,
{16}2b/4b,,,,1,8,1b,,,,
{16}7b-4[8:1]/5b,,,,,,3,,2,,1-5[8:1],,,,6,,6h[4:1],,,,8,,8-4[8:1],,,,7<3[2:1],,,,2,,2,,1,,
{16}1,,8,,8,,,,4x-8[8:1],,,,
{8}1,1,7,7,5,5,3/2,,
{8}8h[8:1]/7h[8:1],,6h[8:1]/5h[8:1],,2-7[8:1]/1h[8:1],,,,
{8}6h[8:1]/5h[8:1],,4h[8:1]/3h[8:1],,7-4[8:1]/8h[8:1],,,,
{4}2h[4:1]/5,6,7h[4:1]/5,4,3h[4:1]/4,2,
{16}1<4[2:1],,,,,,,,
{8}2b,,1,2/8,,6,5/7,,3/4,2,1,8,5,6,7,,
{8}5/6,,1/2,3/8,,5/6,4/7,,3,3,4,4,5,5,6,6,
{8}7/8,,2/4,2/4,,4/5,6-2[8:1],,
{2}5>7b[16:5],
{16},,6,5,6b,,,,
{8}78,1-5[8:1]/6,,7-4[8:1],,4,3-1[8:1],,7-5[8:1],,2-7[8:1],,6-3b[8:1],,2,,
{8}21,8-4[8:1]/3,,2-5[8:1],,5,6-1[8:1],,2-5[8:1],,7-3[8:1],,2-6b[8:1],,8b,,
{16}E1,B1,B2,E3,E5,B5,B6,E7,E3,B3,B4,E5,E7,B7,B8,E1,E2,B2,B3,E4,E6,B6,B7,E8,E4,B4,B5,E6,E8,B8,B1,E2,
{16}3bx,,6h[8:1],,5,,7b/4b,,3h[8:1],,4,,2b/5b,,7h[8:1],,8,,1b/6b,,2h[8:1],,8,,
{8}1b-5[32:3]`7b-4[32:3],1b/7b,1b/7b,,
{1},
E
&inote_5=
